<?xml version="1.0" standalone="no"?>
<!DOCTYPE svg PUBLIC "-//W3C//DTD SVG 1.1//EN" "http://www.w3.org/Graphics/SVG/1.1/DTD/svg11.dtd">
<svg xmlns="http://www.w3.org/2000/svg">
<defs>
<font id="icofont" horiz-adv-x="1000" >
<font-face font-family="IcoFont" font-weight="400" font-style="Regular" units-per-em="1000" ascent="850" descent="-150" />
<missing-glyph horiz-adv-x="1000" />
<glyph glyph-name="addons" horiz-adv-x="1000" unicode="&#xeea0;" d="M882 614c-24 44-55 82-93 115-10 10-27 8-36-4-14-19-29-38-43-57-9-12-7-28 3-38 134-126 126-327 12-444-49-51-112-81-177-91v298c1 0 2 2 3 2 13 4 26 9 38 17 28 19 44 46 44 81 0 37 0 74 0 112v5h-37v6c0 32 0 64 0 96 0 5-2 10-4 13-5 9-18 12-28 9-11-4-16-11-16-22v-101h-95v4c0 32 0 65 1 98 0 9-5 16-13 20-16 7-36-3-35-22 1-32 0-64 0-95v-6h-39v-121c0-15 4-30 12-44 16-27 41-43 71-50 0 0 1-1 1-1v-300c-58 9-114 34-160 76-67 62-103 139-103 229-1 92 33 169 99 230 10 10 12 27 3 39-14 19-29 38-43 57-9 11-26 13-37 4-129-114-184-302-122-474 67-184 257-316 473-286 189 26 350 180 374 384 10 92-8 179-53 261z" />
<glyph glyph-name="address-book" horiz-adv-x="1000" unicode="&#xeea1;" d="M744 785c-8 2-16 2-24 2-157 0-314 0-471 0h-14v-874h489c3 0 6 0 10 0 28 2 45 19 46 48 0 4 0 9 0 14v750c0 6 0 12 0 18-2 23-14 37-36 42z m-375-562v7c0 1 0 1 0 1 2 19 13 29 31 35 17 6 34 13 50 20 16 6 24 18 26 34 1 7-3 13-7 18-23 30-26 63-18 97 7 28 31 44 59 43 28-2 50-20 56-47 5-24 3-48-6-71-3-7-7-13-11-19-13-16-11-38 7-50 8-5 18-9 28-13 12-5 24-9 36-13 20-8 27-19 27-42h-278z m-186 565c-45 0-62-17-62-62v-2c0-249 0-498 0-747 0-8 1-17 2-25 4-20 15-33 35-36 16-3 32-3 50-4v875h-25v1z m696-160v-121c0-16-13-29-29-29h-41v180h41c16 0 29-14 29-30z m0-232v-121c0-16-13-29-29-29h-41v179h41c16 0 29-13 29-29z m0-232v-121c0-17-13-30-29-30h-41v180h41c16 0 29-13 29-29z" />
<glyph glyph-name="adjust" horiz-adv-x="1000" unicode="&#xeea2;" d="M500 788c-242 0-437-196-437-438 0-242 195-438 437-438 242 0 438 196 438 438 0 242-196 438-438 438z m0-823c-213 0-385 172-385 385 0 213 172 385 385 385s385-172 385-385c0-213-172-385-385-385z m0 721v-672c185 0 336 151 336 336 0 185-151 336-336 336z" />
<glyph glyph-name="alarm" horiz-adv-x="1000" unicode="&#xeea3;" d="M893 94c0 2-3 5-5 7-19 15-39 29-57 46-38 38-63 83-67 139-2 38-2 76-4 114-2 46-8 92-21 136-27 89-78 152-168 174-2 1-5 6-5 9-1 34-24 62-56 68-31 5-61-15-71-47-2-4-3-9-3-14-1-8-4-15-5-16-1 0-2 0-3-1-63-16-110-53-141-113-20-38-32-78-38-121-9-55-11-110-11-166 1-46-12-88-38-126-23-33-52-60-85-81-3-2-7-5-7-8-1-22-1-43-1-65h787c0 22 0 43-1 65z m-268-107h-249c-8 0-11-6-8-13l22-48c3-7 12-14 20-14h182c7 0 16 6 20 14l21 48c3 7-1 13-8 13z" />
<glyph glyph-name="anchor" horiz-adv-x="1000" unicode="&#xeea4;" d="M888 98l-40 174c-4 20-29 28-45 14l-130-121c-16-14-10-40 10-46l34-11c-20-23-44-43-71-59-30-18-63-30-98-36v371h77c10-6 21-9 32-9 32 0 58 25 58 57s-26 58-58 58c-11 0-22-3-32-9h-77v40c52 19 89 70 89 129 0 76-62 137-137 137s-138-61-138-137c0-59 37-110 89-129v-40h-77c-9 6-20 9-32 9-32 0-58-26-58-58s26-57 58-57c12 0 23 3 32 9h77v-371c-34 6-68 18-98 36-27 16-51 36-71 59l34 11c20 6 26 32 11 46l-131 121c-15 14-40 6-45-14l-39-174c-5-20 14-38 34-32l38 12c31-45 72-84 120-112 59-35 127-53 196-53s136 18 195 53c48 28 89 67 121 112l37-12c20-6 39 12 35 32z m-351 534c-7-14-21-23-37-23-17 0-31 9-37 23-3 6-4 12-4 18 0 23 18 41 41 41 23 0 41-18 41-41 0-6-2-12-4-18z" />
<glyph glyph-name="archive" horiz-adv-x="1000" unicode="&#xeea5;" d="M129 460c-4 0-7 0-10 1v-447c0-29 24-53 52-53h658c29 0 52 24 52 53v447c-3-1-6-1-9-1l-743 0z m519-198h-296c-15 0-26 12-26 26v70c0 14 11 26 26 26h296c15 0 26-12 26-26v-70h1c0-14-12-26-27-26z m290 417c0 33-27 60-60 60h-755c-34 0-60-27-60-60v-121h56v-45h762v45h57l0 121z" />
<glyph glyph-name="at" horiz-adv-x="1000" unicode="&#xeea6;" d="M936 490c-5 55-20 103-42 142-23 39-52 70-87 94s-75 41-120 50-92 11-140 6c-92-9-169-31-233-68-64-36-115-80-154-131-38-52-65-108-80-168-16-61-21-120-15-177 6-61 20-113 44-155 24-43 54-77 90-103 36-27 77-45 123-54 46-10 93-13 143-8 21 2 41 5 62 8 21 4 40 8 59 13 18 4 35 10 51 16 15 7 29 13 40 20-6 15-12 29-18 44-7 15-14 29-21 42-22-11-47-20-75-27-28-7-59-12-92-15-36-4-71-2-103 5s-62 19-88 37c-26 19-47 44-64 76s-28 70-33 116c-5 51-1 101 13 150 13 49 34 93 65 133 30 40 69 72 116 99 47 26 102 42 165 48 82 8 147-5 196-40 49-35 77-90 84-164 3-26 2-53-2-81-4-28-11-54-21-78-11-23-24-43-42-59-17-16-38-25-61-28-15-1-26 0-33 5l30 333c-25 7-52 11-80 12-29 2-57 1-86-1-38-4-73-15-105-33-31-18-59-41-81-70-23-29-39-62-50-100-11-38-15-78-11-122 3-28 9-51 19-70 10-20 23-35 37-47 15-12 32-20 51-24 18-5 38-6 58-4 33 3 59 9 79 19 21 9 40 20 59 31 27-22 64-31 111-26 41 4 77 18 109 40 32 23 58 51 79 84 21 33 36 70 46 110 9 40 12 80 8 120z m-390-257c-11-5-21-8-30-11-9-3-20-5-33-6-21-2-38 3-52 14-14 12-22 32-25 61-2 23-1 45 3 66s11 41 22 58c10 17 22 31 38 42 15 11 34 18 55 20 7 1 14 1 20 1 6 0 13-1 20-2l-18-243z" />
<glyph glyph-name="attachment" horiz-adv-x="1000" unicode="&#xeea7;" d="M739 713v-372c0-62-49-112-111-112-33 0-63 15-84 39-8 9-14 20-19 32-5 12-8 27-8 41v335c0 7 1 15 3 21 9 31 37 53 71 53 38 0 70-29 74-67 0-2 0-5 0-7v-335c0-21-16-37-37-37s-37 16-37 37v298h-37v-298c0-15 5-30 13-41 11-17 29-29 50-32 4-1 7-1 11-1s8 0 12 1c3 0 7 1 11 2 30 10 52 38 52 71v335c-1 62-50 112-112 112-54 0-100-39-109-91h-227c-17 0-32-14-32-32v-721c0-17 15-32 32-32h490c17 0 31 15 31 32v769h-37z m13-738c0-16-12-29-28-29h-448c-16 0-29 13-29 29v659c0 17 13 30 29 30h204v-166h-130v-32h130v-67h-130v-32h130v-45c1-8 2-15 5-22h-135v-32h148c18-32 47-56 81-68h-229v-32h300v26c43 6 80 31 102 65v-284z m-402 126h300v-32h-300l0 32z" />
<glyph glyph-name="audio" horiz-adv-x="1000" unicode="&#xeea8;" d="M812 668c-6 6-16 6-22 0l-25-25c-6-6-6-16 0-22 69-76 105-166 106-270 0-106-37-196-106-272-6-7-6-16 0-22l25-25c6-6 16-6 22 0 169 176 166 464 0 636z m-349-19c-15-14-30-28-44-41-41-39-82-78-123-117-6-5-12-8-20-8-34 0-69 0-103 0-18 0-36 0-54 0h-1v-265c2-1 4-1 6-1h49c34 0 68 0 101 0 7 0 12-2 17-6 55-52 111-103 166-155 3-2 6-5 9-7 4-4 8-1 8 8v587c0 8-5 10-11 5z m254-75c-6 6-15 5-21 0l-25-25c-6-6-6-16 0-22 43-50 66-109 66-177 0-68-23-128-67-178-5-6-5-16 1-22l25-24c5-6 15-6 21 0 124 132 109 337 0 448z m-93-95c-6 6-16 6-21 0l-26-25c-6-6-6-16-1-22 18-23 28-51 28-82 0-32-10-59-28-82-5-7-5-16 1-22l25-26c6-6 16-6 21 0 65 73 63 189 1 259z m-561 4v-265c1-1 2-1 3-1h30v266c-11 0-22 0-33 0l0 0z" />
<glyph glyph-name="automation" horiz-adv-x="1000" unicode="&#xeea9;" d="M323 365c1-1 2-2 2-5-3-12-4-24-3-36 0-3-1-5-4-6-12-5-23-10-35-15-7-3-14-6-21-9l-2-1c-1 0-1-4 0-8 6-18 11-35 17-53 2-4 6-7 11-6 5 2 11 3 16 4 13 3 26 5 38 8 4 1 6 0 9-3 7-9 15-18 23-27 2-2 2-3 1-6-7-19-15-38-22-57-1 0-1-1-1-2 0-1 3-3 6-5 17-9 33-17 49-26 4-2 9 0 12 3 1 3 3 6 5 9 9 13 18 27 26 41 2 2 3 2 5 2 13-1 25-2 37-3 3 0 5-1 6-4 5-11 10-23 14-34 3-6 6-12 8-18 2-4 7-7 11-5 17 5 34 11 52 17 4 1 7 6 6 10l-4 20c-3 12-5 25-8 37-1 2 0 3 2 5 10 8 19 16 28 25 2 1 4 2 6 1 20-8 39-15 59-23l1 0c1 0 3 3 5 7 3 5 6 10 8 15 6 12 12 25 19 38 1 2 1 4-2 5-17 11-35 22-52 33-2 1-3 2-2 5 3 12 4 25 3 38 0 2 0 3 2 4 14 6 27 12 41 18l12 6c5 2 7 7 5 11-5 17-11 34-17 52-1 4-6 7-10 6-3-1-6-2-9-2l-46-11c-3-1-5-1-7 2-6 11-15 20-24 28-2 2-2 3-1 5l22 60c1 2 1 3-1 4-20 10-39 20-58 30-1 0-1 0-1 0-1 1-2-1-4-2l-2-4-31-49c-2-3-3-3-6-3-12 3-24 4-37 3-2 0-4 1-5 3-6 14-12 28-18 41-2 4-4 8-6 12-1 4-6 6-11 5-17-6-34-11-51-17-5-1-7-6-6-10 0-3 1-6 2-9 3-15 7-31 11-46 1-4 0-6-3-8-10-6-19-14-27-23-2-2-4-3-7-1-19 7-38 15-58 22 0 1-1 1-2 1-1 0-2 0-2-1l-1-2c-10-19-19-38-29-56-1-3-1-4 2-5 18-12 36-23 54-35z m225-12c13-39-7-75-43-87-31-11-67 7-80 37-2 4-4 11-5 15-6 29 14 65 42 74 30 9 73-1 86-39z m346 252c14 4 27 9 40 13l3 1c1 0 1 4 0 9-2 11-5 22-7 34-1 4-5 8-9 7l-7-1c-11-1-22-2-33-4-3 0-4 2-5 3-5 8-10 15-15 22-1 2-1 4 0 6 6 13 13 26 19 38 2 3 2 5-1 6-12 8-24 16-37 23 0 1-1 1-1 1-1 1-3 1-3 0l-2-2c-9-11-17-23-26-34-2-2-3-2-5-2-9 2-18 4-26 5-3 1-4 1-5 4-4 14-8 28-12 43 0 0 0 0-1 1 0 0-4 0-8-1l-36-7c-4-1-7-6-7-10 1-6 2-11 2-17 1-7 2-14 2-22 0-1 0-3-2-4l-21-16c-2-1-3-1-5 0-13 6-26 13-39 20-3 1-4 1-5-2-8-12-16-25-24-37-1-2-1-4 1-5l33-27c2-2 3-3 2-6-1-8-3-16-3-24-1-3-2-5-5-6-14-4-28-8-43-12 0 0-1 0-1-1-1 0 0-4 0-8 3-12 5-24 8-36 1-4 5-7 8-7l7 1c12 1 23 2 34 4 2 0 4-1 5-3 4-7 9-14 14-20 2-3 2-4 1-6-7-13-13-26-20-39 0 0-1-1-1-2-1 0 1-3 3-4l5-3c11-7 21-13 32-20 2-2 3-1 5 1l28 34c2 2 3 2 5 2 8-2 17-3 25-5 2 0 3-1 4-3 5-14 9-28 14-42l0-2c1-1 5-1 9 0l34 8c5 1 8 5 7 10l-1 16c-1 8-2 15-3 22 0 2 0 3 2 5 8 5 15 10 23 15 2 1 3 1 5 0l36-19c1-1 2-1 3-2 1-1 4 2 7 5 6 11 13 21 20 31 2 4 3 8 3 8-1 1-1 1-2 2-12 9-23 18-35 27-2 2-2 3-2 5 2 9 4 17 6 25 0 2 1 3 3 4z m-109-42c-27-9-54 9-61 31-8 28 6 56 34 64 23 6 51-10 58-33 10-30-9-55-31-62z m-222-539c-32-10-65-15-98-15-137 0-257 87-300 217-39 122-3 254 94 338l15 12c4 3 4 9 2 12l-44 56c-2 4-7 4-11 1l-17-14c-125-107-172-276-121-432 54-166 208-277 382-277 43 0 85 6 125 20 38 12 74 30 106 52l18 14c4 2 5 7 2 11l-43 55c-3 4-8 5-12 2l-16-11c-25-17-53-31-82-41z" />
<glyph glyph-name="badge" horiz-adv-x="1000" unicode="&#xeeaa;" d="M838 44l-115 256-7-4c-3-2-5-4-6-6l-29-46c-9-14-25-23-42-24l-54-2c-3 0-5-1-8-2l-7-4-54-120 74-166c8-16 30-18 41-3l56 81c7 9 15 14 21 10l108-3c17-1 29 17 22 33z m-309 146c-7-3-16-5-24-5-8 0-16 2-24 6l-13 7-35 18c-2 1-5 2-8 2l-54 2c-17 1-32 10-41 24l-30 46c-1 2-3 4-5 6l-15 9-118-261c-7-16 4-34 21-34h1l109 4c8 0 15-4 19-10l57-82c5-6 12-10 19-10 9 0 18 5 22 14l90 200 29 64z m-284 251c4-6 5-13 6-20l2-54c0-8 4-15 11-19l3-2 24-15 19-12c6-3 11-8 14-14l29-46c4-6 11-10 19-11l54-2c7-1 14-2 20-5l3-2 45-23c4-2 7-3 11-3 4 0 7 1 11 3l48 25c1 0 3 1 4 1 5 2 10 4 16 4l1 0 53 2c8 1 15 5 19 11l29 46c4 6 9 11 14 14l46 30c6 4 10 11 11 18l2 55c1 6 2 13 5 19l25 48c4 7 4 15 0 22l-24 48c-4 6-5 13-6 20l-2 54c0 8-4 15-11 19l-46 29c-6 4-11 9-14 14l-29 46c-4 7-11 11-19 11l-54 2c-7 1-14 3-20 6l-48 25c-4 2-7 2-11 2-4 0-7 0-11-2l-48-25c-6-3-13-5-20-5l-54-3c-8 0-15-4-19-11l-29-45c-4-6-9-11-14-15l-46-29c-7-4-11-11-11-19l-3-54c0-7-2-14-5-20l-25-48c-3-7-3-15 0-22l25-48z" />
<glyph glyph-name="bag-alt" horiz-adv-x="1000" unicode="&#xeeab;" d="M995 570c-5 67-53 117-120 118-39 0-78 0-117 0-37-1-37-1-37 35 0 75-49 124-125 125-32 0-65 0-97 0-35 0-70 0-105 0-54-1-99-36-114-88-5-19-4-37-3-55 0-15-5-18-19-18-43 1-85 0-128 0-78 0-121-49-127-128-4-55-4-105-1-163 3-48 15-81 51-107 3-2 6-4 8-7 105-82 227-118 358-131 16-1 21 3 21 19 3 37 27 64 57 65 30 1 53-22 60-60 1-3 2-6 2-9-1-14 4-16 18-16 51 5 102 14 152 28 94 27 180 68 249 140 9 10 16 19 18 34 8 74 3 147-1 218z m-650 113c0 62 69 113 154 113 84 0 153-51 153-113h-307z m155-472c-24 1-45-29-44-63 0-32 20-60 43-60 24 0 43 27 43 61 0 34-19 61-42 62z m496 86l-1 0-75-68c-61-41-163-90-325-114 0 0-22 2-37-7-15-10-16-39-57-43v0h-2v0c-42 4-42 33-58 43-15 9-36 7-36 7-163 24-265 73-325 114l-76 68 0 0v0l0 0 0-49v-249c-1-12 0-22 1-31 0-3 1-6 1-9 16-103 106-102 106-102s7 0 19-1c59-4 214-5 368-4l0 0 1 0v0l0 0 0 0v0l0 0 0 0c155-1 309 0 369 4 12 1 18 1 18 1s91-1 106 102c1 3 1 6 1 9 1 9 2 19 2 31v249l0 49 0 0v0z m-496-445l0 0 0 0 0 0z m0 0l0 0-1 0 1 0z" />
<glyph glyph-name="bag" horiz-adv-x="1000" unicode="&#xeeac;" d="M882 586c0 30-24 55-54 55h-65c-1 4-4 8-6 13-15 27-36 51-62 71-53 40-122 63-195 63-73 0-143-23-195-63-26-21-47-45-62-72-3-4-5-8-7-12h-64c-30 0-54-25-54-56v-94h764l0 95z m-560 55c7 9 16 17 26 25 40 31 94 48 152 48 58 0 112-18 152-48 10-8 18-16 26-25h-356z m578-554h-800l18 383h764l18-383z m3-67h-807l3 51h802l2-51z m3-49c1-32-23-59-54-59h-704c-31 0-56 27-54 59l2 32h808l2-32z" />
<glyph glyph-name="ban" horiz-adv-x="1000" unicode="&#xeead;" d="M901 520c-23 54-54 101-92 140-39 39-86 70-140 93-54 23-110 35-169 35s-116-12-170-35c-54-23-100-54-139-93-38-39-69-86-92-140-24-54-35-110-35-170s11-116 35-170 54-101 92-140c39-39 85-70 139-93 54-23 111-35 170-35s115 12 169 35c54 23 101 54 140 93 38 39 69 86 92 140 24 54 35 111 35 170 0 60-12 116-35 170z m-659-339c-34 51-51 108-51 169 0 56 14 108 42 156s65 85 112 113c47 28 99 42 155 42 62 0 119-18 170-52l-428-428z m542 49c-16-39-38-72-65-99-28-28-61-50-99-67-38-16-78-24-120-24-61 0-117 17-169 50l429 428c32-51 49-107 49-168 0-42-8-82-25-120z" />
<glyph glyph-name="bar-code" horiz-adv-x="1000" unicode="&#xeeae;" d="M63 635h98v-570h-98v570z m643 0h99v-570h-99v570z m-483 0h49v-570h-49v570z m307 0h50v-570h-50v570z m87 0h49v-570h-49v570z m209 0h50v-570h-50v570z m87 0h25v-570h-25v570z m-577 0h148v-570h-148v570z" />
<glyph glyph-name="bars" horiz-adv-x="1000" unicode="&#xeeaf;" d="M104-57v-14c0-9 7-16 16-16h760c9 0 17 7 17 16v14c0 10-8 17-17 17h-35s-9 7-9 16v795c0 9-7 17-16 17h-176c-9 0-17-8-17-17v-795c0-9-6-16-14-16s-13 7-13 16v531c0 9-8 16-17 16h-175c-9 0-17-7-17-16v-531c0-9-6-16-14-16s-14 7-14 16v400c0 9-7 17-16 17h-176c-9 0-17-8-17-17v-400c0-9-1-16-3-16h-31c-9 0-16-7-16-17z m564 821h127c10 0 17-7 17-17v-89c0-9-7-17-17-17h-127c-9 0-17 8-17 17v90c0 9 8 16 17 16z m-237-265h128c10 0 17-7 17-16v-268c0-9-7-16-17-16h-128c-9 0-16 7-16 16v268c0 9 7 16 16 16z m-252-231v84c0 9 7 17 16 17h128c9 0 16-8 16-17v-84c0-9-7-17-16-17h-128c-9 0-16 8-16 17z" />
<glyph glyph-name="basket" horiz-adv-x="1000" unicode="&#xeeb0;" d="M796 540l62 75c5 6 4 15-2 20l-47 39c-6 5-15 4-20-2l-109-132c-5-5-15-10-23-10h-314c-8 0-18 4-23 10l-109 132c-5 6-14 7-20 2l-47-39c-6-5-7-14-2-20l62-75c5-5 3-10-5-10h-122c-8 0-14-7-14-14v-100c0-8 6-14 14-14h63c7 0 15-6 16-14l54-352c1-7 8-14 16-14h548c8 0 15 7 17 14l53 352c2 8 9 14 17 14h63c7 0 14 6 14 14v100c0 7-7 14-14 14h-123c-7 0-10 5-5 10z m-451-432h-32c-8 0-15 6-16 14l-28 234c-1 8 4 14 12 14h65c7 0 14-6 14-14v-234c-1-8-7-14-15-14z m194 0h-65c-8 0-14 6-14 14v234c0 8 7 14 14 14h65c8 0 14-6 14-14v-234c0-8-6-14-14-14z m164 0h-32c-8 0-14 6-14 14v234c0 8 6 14 14 14h64c8 0 14-6 13-14l-29-234c-1-8-8-14-16-14z" />
<glyph glyph-name="battery-empty" horiz-adv-x="1000" unicode="&#xeeb1;" d="M926 423h-50c-6 0-11 5-11 11v124c0 6-5 11-11 11h-780c-6 0-11-5-11-11v-415c0-6 5-11 11-11h780c7 0 12 5 12 11v123c0 6 5 12 11 12h49c6 0 11 5 11 11v123c1 6-5 11-11 11z m-135-206c0-7-5-12-11-12h-634c-6 0-11 5-11 12v267c0 6 5 11 11 11h634c6 0 11-5 11-11v-267z" />
<glyph glyph-name="battery-full" horiz-adv-x="1000" unicode="&#xeeb2;" d="M926 423h-50c-6 0-11 5-11 11v124c0 6-5 11-11 11h-780c-6 0-11-5-11-11v-415c0-6 5-11 11-11h780c7 0 12 5 12 11v123c0 6 5 12 11 12h49c6 0 11 5 11 11v123c1 6-5 11-11 11z m-135-206c0-7-5-12-11-12h-634c-6 0-11 5-11 12v267c0 6 5 11 11 11h634c6 0 11-5 11-11v-267z m-185 30c-34 69-69 138-103 207-3 6-7 6-13 6l-162 0c-1 0-3 0-5 0-3-1-5-2-4-3 0-1 1-2 1-2 35-70 69-139 104-209 3-5 7-6 12-6l163 0c1 0 3 0 5 1 2 0 4 1 3 3 0 1-1 2-1 3z m-323 207c-1 3-7 6-10 6-32 0-63 0-94 0-1 0-2 0-4 0-2-1-3-6-3-12v-196c0-6 5-11 11-11h195c6 0 10 1 10 3 0 1-1 2-1 3-35 69-69 138-104 207z m460 5h-195c-6 0-10-1-10-2 0-1 1-2 1-3 35-69 69-138 104-207 2-3 7-6 11-6 30-1 61-1 92-1 2 0 3 1 4 1 3 0 5 5 5 11v196c0 6-5 11-12 11z" />
<glyph glyph-name="battery-half" horiz-adv-x="1000" unicode="&#xeeb3;" d="M926 423h-50c-6 0-11 5-11 11v124c0 6-5 11-11 11h-780c-6 0-11-5-11-11v-415c0-6 5-11 11-11h780c7 0 12 5 12 11v123c0 6 5 12 11 12h49c6 0 11 5 11 11v123c1 6-5 11-11 11z m-135-206c0-7-5-12-11-12h-634c-6 0-11 5-11 12v267c0 6 5 11 11 11h634c6 0 11-5 11-11v-267z m-185 30c-34 69-69 138-103 207-3 6-7 6-13 6l-162 0c-1 0-3 0-5 0-3-1-5-2-4-3 0-1 1-2 1-2 35-70 69-139 104-209 3-5 7-6 12-6l163 0c1 0 3 0 5 1 2 0 4 1 3 3 0 1-1 2-1 3z m-323 207c-1 3-7 6-10 6-32 0-63 0-94 0-1 0-2 0-4 0-2-1-3-6-3-12v-196c0-6 5-11 11-11h195c6 0 10 1 10 3 0 1-1 2-1 3-35 69-69 138-104 207z" />
<glyph glyph-name="battery-low" horiz-adv-x="1000" unicode="&#xeeb4;" d="M926 423h-50c-6 0-11 5-11 11v124c0 6-5 11-11 11h-780c-6 0-11-5-11-11v-415c0-6 5-11 11-11h780c7 0 12 5 12 11v123c0 6 5 12 11 12h49c6 0 11 5 11 11v123c1 6-5 11-11 11z m-135-206c0-7-5-12-11-12h-634c-6 0-11 5-11 12v267c0 6 5 11 11 11h634c6 0 11-5 11-11v-267z m-508 237c-1 3-7 6-10 6-32 0-63 0-94 0-1 0-2 0-4 0-2-1-3-6-3-12v-196c0-6 5-11 11-11h195c6 0 10 1 10 3 0 1-1 2-1 3-35 69-69 138-104 207z" />
<glyph glyph-name="beaker" horiz-adv-x="1000" unicode="&#xeeb5;" d="M825-21c0-37-30-67-67-67h-516c-37 0-67 30-67 67 0 4 1 7 2 10l179 469c0 1 0 2 1 2v269h-22c-16 0-29 13-29 29 0 16 13 30 29 30h51c16 0 29-14 29-30v-300c0-1 0-3 0-5 0-3-1-8-3-11l-107-283h388l-111 282c-1 3-2 6-2 10l0 1c-1 1-1 3-1 4v302c0 16 13 30 30 30h51c17 0 30-14 30-30s-13-29-30-29h-22v-270l185-469c1-4 2-7 2-11z m-382 245c0 12 10 22 22 22s22-10 22-22c0-12-9-22-22-22s-22 10-22 22z m15 0c0-4 3-7 7-7 4 0 8 3 8 7 0 4-3 8-8 8-4 0-7-4-7-8z m99 22c0 12 10 22 22 22 12 0 22-10 22-22s-10-22-22-22-22 10-22 22z m15 0c0-4 3-7 7-7s7 3 7 7-3 8-7 8c-4 0-7-4-7-8z m-76 74c0 16 14 30 30 30s31-14 31-30c0-17-14-31-31-31s-30 14-30 31z m14 0c0-9 8-16 16-16 9 0 16 7 16 16s-7 15-16 15c-8 0-16-7-16-15z" />
<glyph glyph-name="beard" horiz-adv-x="1000" unicode="&#xeeb6;" d="M834 650c-13 0-23-17-24-38-5-99-29-291-96-302-50-8-100 138-128 176-29 37-137 60-180-18-43-79-56-139-123-160-47-15-70 71-80 122-4 21-9 55-11 76-3 35-6 71-7 106 0 21-9 37-21 36-11-2-20-20-19-41 2-70 10-140 23-207 21-147 77-379 230-456 18-9 50-22 70-27 12-3 25-5 38-5 28 0 55 8 81 22 159 68 242 328 254 516 8 54 13 104 14 162 1 21-9 38-21 38z m-240-379c-17-10-28-8-35-1-15 14-17 54-36 64-27 14-71 3-71-32 0-37-39-39-49-27-32 38-9 75 15 98 14 15 43 35 64 38 36 5 73-12 73-12 75-43 58-117 39-128z m-283 467h42c14 0 25 11 25 25s-11 25-25 25h-42c-13 0-25-12-25-25 0-14 12-25 25-25z m336 0h42c14 0 25 11 25 25s-11 25-25 25h-42c-13 0-25-12-25-25 0-14 12-25 25-25z" />
<glyph glyph-name="bed" horiz-adv-x="1000" unicode="&#xeeb7;" d="M63 578c0 2 0 4 0 7 2 28 29 46 52 33 15-9 19-25 19-44 0-84 0-168 0-252v-16h802v-228h-72v152h-730v-152h-71v500z m310-73h13c71 0 142 0 212-1 94 0 187 1 281 0 36 0 59-25 59-66v-91h-565v158z m-197-56c0 16 7 28 17 38 12 12 26 17 41 17h109v-157h-167c0 35 0 68 0 102z" />
<glyph glyph-name="bell" horiz-adv-x="1000" unicode="&#xeeb8;" d="M901 330c-6 23-26 40-50 42-24 1-47-12-57-34-9-22-4-48 14-64 3-4 6-7 4-12-13-43-30-84-57-120-31-42-69-74-121-88-10-3-21-4-33-6 1 8 1 13 2 20-107-56-213-56-319 0-2-6-5-12-5-17 0-24-1-48 2-71 4-34 29-69 77-68 60 2 120 1 180 1 31 0 50 13 57 43 4 14 5 29 8 44 4 1 8 1 13 1 4 1 9 1 13 2 61 11 109 44 149 90 40 47 65 101 81 159 2 5 4 8 9 11 27 11 40 40 33 67z m-145 52c0 175-143 310-309 309-170 0-309-137-310-306-1-170 135-311 307-312 174-1 312 138 312 309z m-417-2c0 62 47 110 107 110 60 0 108-48 108-107 1-60-47-109-107-109-59 0-108 48-108 106z m157 3c0 27-22 49-50 48-27 0-50-22-49-49 0-27 22-49 49-49 28-1 50 22 50 50z m162 279c3-2 7-4 11-4 4 0 8 2 11 5l96 98c6 6 5 16-1 22-6 6-15 6-21 0l-96-99c-6-6-6-16 0-22z m-28 10c1 0 2 0 2 0 8 0 15 6 16 13l11 85c1 8-5 16-13 17-9 1-16-4-17-13l-12-84c-1-9 5-16 13-18z m63-14c-8-2-13-11-12-19 2-7 8-12 15-12 2 0 3 1 4 1l85 20c8 2 13 11 11 19-2 8-10 13-19 11l-84-20z m-480 5c3-3 7-5 11-5 4 0 8 2 11 5 6 5 6 15 0 21l-96 99c-5 6-15 6-21 0-6-6-7-15-1-22l96-98z m48 9c0 0 1 0 2 0 8 2 14 9 13 18l-12 84c-1 9-8 15-17 13-8-1-14-9-13-17l11-84c1-8 8-14 16-14z m-64-45c6 0 13 5 15 12 1 8-4 17-12 19l-84 20c-9 2-17-3-19-11-2-8 3-17 11-19l85-20c1 0 2-1 4-1z" />
<glyph glyph-name="beverage" horiz-adv-x="1000" unicode="&#xeeb9;" d="M478 618c-7 39-15 76-23 106-11 42-35 57-53 61-58 15-135-53-159-77-4-4-4-10 0-14l15-14c3-4 10-4 14 0 30 29 88 74 120 66 4-1 17-4 25-33 7-27 14-60 20-95 1-6-2-10-8-10h-16c-5 0-10-4-9-10l41-664c0-5 5-10 10-10h2c6 0 10-2 10-6 0-3 5-6 10-6h210c5 0 10 3 10 6 0 4 4 6 10 6h2c5 0 10 5 10 10l41 664c0 6-4 10-10 10h-260c-6 0-11 4-12 10z m-40-174l-8 129c0 6 3 10 6 10s8-4 9-10c7-44 14-89 19-129 1-5-3-10-8-10h-8c-5 0-10 5-10 10z m26-148c-5 10-1 22 9 27l60 29c10 5 22 1 27-9l29-59c5-10 1-22-9-27l-59-30c-10-5-22-1-27 10l-30 59z m123 13l-20 40c-1 3-4 6-6 8-4 3-8 9-8 15l2 22c1 12 11 20 23 19 0 0 69-5 69-5 12-1 21-11 20-23l-6-69c-1-12-11-21-22-20-1 0-24 2-38 3-5 1-12 5-14 10z m3-173h-24l-42 0c-11 0-20 9-20 20l-1 51c0 5 2 9 4 9 2 0 3 0 4 0 4 0 8 1 12 2l41 21c5 2 13 4 17 4h9c11 0 20-9 20-20l1-66c0-12-9-21-21-21z m-30-167c-9-6-22-4-28 5l-38 55c-6 9-4 22 5 28l47 32c4 3 8 3 9 0l0-6c0-17 14-31 31-31h12c5 0 12-4 16-8l6-9c6-9 4-22-5-29l-55-37z m40 94h-14c-2 0-3 1-4 1-2 0-3 0-4 1-1 0-2 1-3 2-1 0-2 1-3 2-1 1-1 1-2 2-1 1-2 3-3 4-1 3-1 6-1 8l-1 15v17c0 5 5 10 10 10h15c8 0 16 3 22 9 6 6 10 14 9 23v6s5 7 10 7l21 0c11 0 20-9 20-20l1-66c0-11-9-21-21-21l-52 0z m-95 381c-5 39-12 84-19 130-1 5 3 9 8 9h230c5 0 10-4 9-10l-8-129c0-5-5-10-10-10h-199c-5 0-10 5-11 10z" />
<glyph glyph-name="bill" horiz-adv-x="1000" unicode="&#xeeba;" d="M809 578h-628c-6-33-30-61-62-72-2-1-4-2-6-2v-110c17 26 46 44 80 44 52 0 95-43 95-95 0-52-43-94-95-94-34 0-63 17-80 44v-110c30-9 54-31 64-61h293c-87 18-153 111-154 224 1 124 83 226 183 226 101 0 183-102 183-226 0-113-67-206-154-224h285c9 29 32 51 62 60 4 1 8 2 12 3v317c-39 6-71 36-78 76z m78-235c0-52-43-94-95-94-52 0-95 42-95 94 0 52 43 95 95 95 52 0 95-43 95-95z m-148 0c0-29 24-53 53-53 29 0 53 24 53 53 0 30-24 53-53 53-29 0-53-23-53-53z m-493 0c0 30-24 53-53 53s-53-24-53-53c0-29 24-53 53-53 29 0 53 24 53 53z m-183 285v-556h875v556h-875z m866-486l-18 2-4 0 0 0-2 0h-3c-10 0-19-2-27-7-9-6-16-13-21-23l0-1-1-1c-1-4-3-9-3-13l-1-4-2-14h-704l-2 14 0 2 0 2c-3 15-11 29-25 37-7 5-16 8-25 8h-4l-16 2v395l16 1 4 0c28 2 50 25 50 53v2c0 0 0 0 0 1v4l-1 17h710l-1-17v-4l0-2c0-27 20-50 45-53 3-1 6-1 8-1 1 0 3 0 4 0l5 1 18 1 0-402z m-331 71c27 35 42 82 42 133s-15 97-42 132c-27 34-62 53-99 53-37 0-71-19-98-53-28-35-43-82-43-132 0-51 15-98 43-133 27-33 61-52 98-52 37 0 72 19 99 52z m-46 62c-8-10-21-17-36-20v-32c-4-1-8-1-12-1-4 0-8 0-12 1v29h-2c-6 0-11 0-16 0-4 1-9 1-13 2-4 1-8 2-12 3s-9 3-13 5c0 5 1 10 3 16 1 5 3 10 5 16 7-3 14-5 21-6 7-2 14-2 21-2 11 0 20 2 26 6 6 3 9 10 9 18 0 5 0 8-2 11s-4 5-7 7c-2 1-5 3-8 4-3 1-7 3-10 4l-14 6c-6 3-11 5-16 8-5 3-9 6-12 10-4 4-7 9-8 14-2 5-3 11-3 19 0 16 4 28 13 38 9 9 22 15 38 17v28c4 1 8 2 12 2s7-1 11-2v-27c8-1 15-2 21-4 7-1 14-3 21-6-1-10-4-20-8-30l-9 3c-2 1-6 2-8 3-4 1-7 1-11 1-4 1-9 1-14 1-3 0-6 0-9-1s-6-1-8-2c-3-2-5-4-7-6-1-3-2-6-2-10 0-4 1-7 2-10 1-2 3-4 5-6 2-2 5-3 7-4 3-2 6-3 8-4l16-7c7-2 13-5 19-8 5-3 10-6 14-10 4-4 7-9 9-15 2-6 3-13 3-22 0-15-4-27-12-37z" />
<glyph glyph-name="bin" horiz-adv-x="1000" unicode="&#xeebb;" d="M251-45c1-24 20-43 44-43h411c23 0 43 19 44 43l29 620h-558l30-620z m342 466c0 9 8 17 18 17h29c10 0 18-8 18-17v-355c0-9-9-17-18-17h-29c-10 0-18 8-18 17v355z m-125 0c0 9 8 17 18 17h29c9 0 17-8 17-17v-355c0-9-8-17-17-17h-29c-10 0-18 8-18 17v355z m-125 0c0 9 8 17 18 17h28c10 0 18-8 18-17v-355c0-9-8-17-18-17h-28c-10 0-18 8-18 17v355z m456 321h-190v36c0 5-4 10-9 10h-199c-5 0-10-5-10-10v-36h-189c-15 0-28-12-28-27v-87h652v87c0 15-12 27-27 27z" />
<glyph glyph-name="binary" horiz-adv-x="1000" unicode="&#xeebc;" d="M305 683c-1 6-3 10-6 14-2 4-5 7-9 9-4 2-9 3-14 3-7 0-13-2-17-5-5-4-8-9-11-16-2-7-3-17-3-28 0-18 3-31 9-39 6-7 13-11 22-11 7 0 13 2 18 6 5 4 8 9 10 16 3 7 4 17 4 28 0 10-1 17-3 23z m-15-55c-4-5-8-8-14-8-5 0-10 3-13 8-4 6-6 16-6 32s2 27 6 33c3 4 8 7 13 7s10-3 14-8c4-6 5-16 5-32s-1-26-5-32z m74-16v97h-7c-2-4-6-8-11-13-5-4-11-8-17-11v-11c4 1 8 3 12 6 5 3 9 5 12 8v-76l11 0z m92 71c-2 6-4 10-6 14-3 4-6 7-10 9-4 2-8 3-14 3-7 0-13-2-17-5-5-4-8-9-11-16-2-7-3-17-3-28 0-18 3-31 9-39 6-7 13-11 22-11 8 0 13 2 18 6 5 4 8 9 10 16 3 7 4 17 4 28 0 10-1 17-2 23z m-16-55c-4-5-8-8-14-8-5 0-10 3-13 8-4 6-6 16-6 32s2 27 6 33c4 4 8 7 13 7s10-3 14-8c4-6 6-16 6-32 0-16-2-26-6-32z m91 55c-2 6-4 10-6 14-3 4-6 7-10 9-4 2-9 3-14 3-7 0-13-2-17-5-5-4-8-9-11-16-2-7-3-17-3-28 0-18 3-31 9-39 6-7 13-11 22-11 7 0 13 2 18 6 4 4 8 9 10 16 2 7 4 17 4 28 0 10-1 17-2 23z m-16-55c-4-5-8-8-14-8s-10 3-13 8c-4 6-6 16-6 32s2 27 6 33c3 4 8 7 13 7 6 0 10-3 14-8 4-6 6-16 6-32s-2-26-6-32z m91 55c-2 6-4 10-6 14-3 4-6 7-10 9-4 2-9 3-14 3-7 0-13-2-17-5-5-4-8-9-11-16-2-7-3-17-3-28 0-18 3-31 9-39 6-7 13-11 22-11 7 0 13 2 18 6 5 4 8 9 10 16 3 7 4 17 4 28 0 10-1 17-2 23z m-16-55c-4-5-8-8-14-8s-10 3-13 8c-4 6-6 16-6 32s2 27 6 33c4 4 8 7 13 7 6 0 11-3 14-8 4-6 6-16 6-32 0-16-2-26-6-32z m-295-177v97h-7c-2-5-6-9-11-13-5-5-11-9-17-12v-11c4 1 8 3 13 6 4 3 8 5 11 8v-75l11 0z m92 70c-2 6-4 10-6 14-3 4-6 7-10 9-4 2-8 3-14 3-7 0-13-1-17-5-5-4-8-9-11-16-2-7-3-16-3-28 0-18 3-31 9-39 6-7 13-10 22-10 8 0 13 2 18 5 5 4 8 10 10 17 3 7 4 16 4 27 0 10-1 17-2 23z m-16-55c-4-5-8-8-14-8-5 0-10 3-13 8-4 6-6 16-6 32 0 16 2 27 6 33 4 4 8 7 13 7s11-3 14-8c4-5 6-16 6-32 0-16-2-26-6-32z m74-15v97h-7c-2-5-6-9-11-13-4-5-10-9-17-12v-11c4 1 8 3 13 6 4 3 8 5 11 8v-75l11 0z m65-1v97h-7c-2-4-6-8-11-13-4-4-10-8-17-11v-11c4 1 8 3 13 6 4 2 8 5 11 8v-76h11z m63-1c7 0 13 2 17 5 5 4 8 10 11 17 2 7 3 16 3 27 0 10-1 17-2 23-2 6-4 10-6 14-3 4-6 7-10 9-4 2-8 4-13 4-8 0-13-2-18-6-5-4-8-9-10-16-3-7-4-16-4-28 0-18 3-31 10-39 5-7 12-10 22-10z m-14 82c4 4 8 7 13 7s11-3 14-8c4-5 6-16 6-32 0-16-2-26-6-32-3-5-8-8-14-8-5 0-10 3-13 8-4 6-6 16-6 32 0 16 2 27 6 33z m102-80v97h-8c-2-5-5-9-10-13-5-5-11-9-18-12v-11c4 1 8 3 13 6 4 3 8 5 11 8v-75l12 0z m-356-92c-1 6-3 10-6 14-2 4-5 7-9 9-4 2-9 4-14 4-7 0-13-2-17-6-5-4-8-9-11-16-2-7-3-16-3-28 0-18 3-31 9-39 6-7 13-10 22-10 7 0 13 2 18 6 5 3 8 9 10 16 3 7 4 16 4 27 0 10-1 17-3 23z m-15-54c-4-6-8-8-14-8-5 0-10 2-13 8-4 5-6 15-6 31s2 27 6 33c3 4 8 7 13 7s10-3 14-8c4-5 5-16 5-32 1-16-1-26-5-31z m74-16v97h-7c-2-5-6-9-11-13-5-5-11-9-17-12v-11c4 1 8 3 12 6 5 3 9 5 12 8v-76l11 1z m92 70c-2 6-4 10-6 14-3 4-6 7-10 9-4 2-8 4-14 4-7 0-13-2-17-6-5-4-8-9-11-16-2-7-3-16-3-28 0-18 3-31 9-39 6-7 13-10 22-10 8 0 13 2 18 6 5 3 8 9 10 16 3 7 4 16 4 27 0 10-1 17-2 23z m-16-54c-4-6-8-8-14-8-5 0-10 2-13 8-4 5-6 15-6 31s2 27 6 33c4 4 8 7 13 7s10-3 14-8c4-5 6-16 6-32 0-16-2-26-6-31z m89 4c3 7 4 16 4 27 0 10-1 17-2 23-2 6-4 10-6 14-3 4-6 7-10 9-4 2-9 4-14 4-7 0-13-2-17-6-5-4-8-9-11-16-2-7-3-16-3-28 0-18 3-31 9-39 6-7 13-10 22-10 7 0 13 2 18 6 4 3 8 9 10 16z m-28-12c-5 0-10 2-14 8-3 5-5 15-5 31s2 27 6 33c3 5 8 7 13 7 6 0 10-3 14-8 4-5 5-16 5-32s-1-26-5-31c-4-6-8-8-14-8z m75-10c7 0 13 2 18 6 5 3 8 9 10 16 3 7 4 16 4 27 0 10-1 17-2 23-2 6-4 10-6 14-3 4-6 7-10 9-4 2-9 3-14 3-7 0-13-1-17-5-5-4-8-9-11-16-2-7-3-16-3-28 0-18 3-31 9-39 6-7 13-10 22-10z m-13 82c3 4 8 7 13 7 6 0 10-3 14-8 4-6 6-16 6-32 0-16-2-26-6-32-4-5-8-8-14-8s-10 3-13 8c-4 6-6 16-6 32s2 27 6 33z m102-80v97h-8c-2-5-6-9-11-13-5-5-10-9-17-12v-11c4 1 8 3 12 6 5 3 9 5 12 8v-76l12 1z m65 0v97h-8c-2-5-6-9-11-13s-10-9-17-12v-11c4 1 8 3 13 6 4 3 8 5 11 8v-76l12 1z m-435-138v96h-7c-2-4-6-8-11-13-5-4-11-8-17-11v-11c4 1 8 3 13 6 4 2 8 5 11 8v-75h11z m90 20c3 7 4 16 4 27 0 10-1 17-2 23-2 6-4 10-6 14-3 4-6 7-10 9-4 2-8 3-14 3-7 0-13-1-17-5-5-4-8-9-11-16-2-7-3-16-3-28 0-18 3-31 10-39 5-7 12-10 21-10 8 0 13 2 18 5 5 4 8 10 10 17z m-28-13c-5 0-10 3-13 8-4 6-6 16-6 32 0 16 2 27 6 33 4 4 8 7 13 7s10-3 14-8c4-5 6-16 6-32 0-16-2-26-6-32-4-5-8-8-14-8z m88-7v96h-7c-2-4-6-8-11-13-4-4-10-8-17-11v-11c4 1 8 3 13 6 4 2 8 5 11 8v-75h11z m65-1v97h-7c-2-4-6-8-11-13-4-4-10-8-17-11v-11c4 1 8 3 13 6 4 2 8 5 11 8v-76h11z m-262-86c-2-7-3-16-3-28 0-18 3-31 9-39 5-7 13-10 22-10 7 0 13 1 18 5 4 4 8 10 10 17 2 7 4 16 4 27 0 10-1 17-3 23-1 5-3 10-6 14-2 4-5 7-9 9-4 2-9 3-14 3-7 0-13-2-17-5-5-4-8-9-11-16z m28 12c6 0 10-3 14-8 4-5 5-16 5-32s-1-26-5-31c-4-6-8-8-14-8-5 0-10 2-14 8-3 5-5 15-5 31s2 27 6 33c3 4 8 7 13 7z m88-88v98h-7c-2-5-6-9-11-13-5-5-11-9-17-12v-11c4 1 8 3 12 6 5 3 9 5 12 8v-76h11z m34 76c-2-7-3-16-3-28 0-18 3-31 9-39 6-7 13-10 22-10 7 0 13 1 18 5 4 4 8 10 10 17 2 7 4 16 4 27 0 10-1 17-3 23-1 5-3 10-6 14-2 4-5 7-9 9-4 2-9 3-14 3-7 0-13-2-17-5-5-4-8-9-11-16z m28 12c6 0 10-3 14-8 4-5 6-16 6-32s-2-26-6-31c-4-6-8-8-14-8-5 0-10 2-13 8-4 5-6 15-6 31s2 27 6 33c3 4 8 7 13 7z m87-119h-294c-18 0-32 14-32 32v65c1 0 3 1 4 2 5 3 9 5 11 8v-75h12v96h-7c-2-4-6-8-11-12-3-3-6-4-9-7v92c5-6 12-9 21-9 6 0 12 2 17 5 5 4 8 10 10 17 3 7 4 16 4 27 0 10-1 17-3 23-1 6-3 11-6 14s-5 7-9 9c-4 2-9 3-14 3-7 0-13-1-17-5-2-1-3-3-4-4v116c2 0 4 1 5 2 5 3 8 6 11 8v-75h12v97h-7c-2-5-6-9-11-13-3-3-7-5-10-7v92c6-6 13-9 21-9 7 0 13 2 18 6 4 3 8 9 10 16 2 7 4 16 4 27 0 10-1 17-3 23-1 6-3 11-6 14-2 4-6 8-9 10-4 2-9 3-14 3-7 0-13-2-18-6l-3-4v139l5 3c5 3 8 5 11 8v-75h12v97h-7c-2-4-6-9-11-13-3-3-7-5-10-7v21c0 18 14 32 32 32h371c18 0 41-11 53-24l12-14c-2-3-4-5-8-8-5-5-11-9-17-12v-11c3 1 8 3 12 6 5 3 8 5 11 8v-75h12v80l13-14 45-52c11-13 20-39 20-56v-32c-2 2-3 4-6 6-4 2-8 3-14 3-6 0-12-2-17-6-5-4-8-9-10-16-3-7-4-16-4-27 0-19 3-32 10-40 5-7 13-10 21-10 8 0 14 2 18 6 1 1 2 2 3 2v-195c11-4 21-10 31-17v351c0 20-10 47-23 62l-50 58c-13 15-26 30-39 45-13 15-39 27-59 27h-412c-20 0-36-16-36-36v-804c0-20 16-35 36-35h374c-20 11-38 26-52 44z m-319 274c3 4 8 7 13 7s10-3 14-8c4-6 6-16 6-32s-2-26-6-32c-4-5-8-8-14-8-5 0-10 3-13 8-4 6-6 16-6 32 0 16 2 27 6 33z m0 300c3 4 8 7 13 7s10-3 14-8c4-6 6-16 6-32s-2-26-6-32c-4-5-8-8-14-8-5 0-10 3-13 8-4 6-6 16-6 32 0 16 2 27 6 33z m542-65c-3-5-8-8-14-8s-10 3-13 8c-4 6-6 16-6 32 0 16 2 27 6 33 4 4 8 7 14 7s10-3 13-8c4-6 6-16 6-32 0-16-2-26-6-32z m64-343l-2 0-6 16 0 1c20 44 18 45 15 49l-26 25c-1 1-2 2-4 2-2 0-6 0-44-18l-2 0-15 6-1 2c-18 44-20 44-24 44h-37c-4 0-6 0-23-44l0-2-16-6-2 0c-25 11-40 17-44 17-2 0-4-1-5-2l-26-26c-3-3-4-4 16-47l1-2-7-15-1-1c-46-17-46-19-46-23v-36c0-5 1-7 44-22 0-2 0-3 0-5 0-11 1-19 4-26-14-32-13-33-10-36l26-25c1-1 3-2 5-2 1 0 6 0 44 17l1 1 16-6 1-2c17-45 19-45 24-45h36c5 0 7 0 23 45l1 2 16 6 1-1c26-11 41-16 45-16 2 0 3 0 5 2l25 25c4 3 5 5-15 48l-1 1 6 15 2 1c45 18 45 19 45 24v36c0 5 0 7-45 23z m-127-99c-32 0-59 26-59 57s27 58 59 58c33 0 59-26 59-58s-26-57-59-57z" />
<glyph glyph-name="binoculars" horiz-adv-x="1000" unicode="&#xeebd;" d="M886 388c-46 49-95 96-144 142-35 32-76 41-121 22-12-5-23-11-35-16-38-17-78-23-120-17-25 5-48 15-70 26-27 14-54 20-84 14-24-5-44-16-61-33-42-41-83-84-125-124-51-48-72-105-61-173 15-96 99-162 196-157 72 5 124 40 158 104 3 6 6 12 9 19 43-42 103-40 143 0 2-4 3-6 4-9 36-82 122-129 209-111 72 15 121 58 143 128 23 69 8 132-41 185z m-636-277c-81 0-147 67-148 149 0 81 66 147 149 148 80 0 148-66 148-147 1-83-65-149-149-150z m233 356c0 9 7 17 17 17 10 0 18-8 18-17v-64c0-10-8-18-18-18-9 0-17 8-17 18v64z m16-252c-24 1-45 22-44 46 1 24 21 44 45 44 24 0 45-21 44-46 0-24-20-44-45-44z m247-104c-82 2-148 70-146 152 1 82 69 147 152 146 80-2 146-70 145-149-2-84-68-150-151-149z m-146 462c23 11 46 19 72 16 8-1 15-2 23-3-13 32-51 50-86 41-35-9-60-42-56-75 16 7 32 14 47 21z m-246 15c25-2 47-14 69-24 8-4 16-7 24-10 1 35-25 67-60 74-34 7-72-13-81-40 16 0 32 1 48 0z m483-247c43-43 42-108 14-145 3 47-9 86-40 118-32 32-71 44-116 42 35 26 99 28 142-15z m-676-8c-40-48-29-112-7-135-3 45 9 84 41 116 31 31 70 44 116 42-38 28-108 28-150-23z" />
<glyph glyph-name="bluetooth" horiz-adv-x="1000" unicode="&#xeebe;" d="M759 558l-211 210c-11 11-29 20-41 20-12 0-22-13-22-28v-277c0-15-9-19-19-8l-163 162c-11 11-28 11-39 0l-22-23c-11-10-11-28 0-38l206-207c11-10 11-28 0-38l-206-207c-11-10-11-28 0-38l22-23c11-11 28-11 39 0l163 163c10 10 19 7 19-8v-278c0-15 10-28 22-28 12 0 30 9 41 20l211 210c10 11 10 28 0 39l-150 150c-11 10-11 28 0 38l150 150c10 11 10 28 0 39z m-167 44l44-45c11-10 11-28 0-38l-44-44c-11-11-20-7-20 8v111c0 15 9 19 20 8z m44-459l-44-45c-11-11-20-7-20 8v112c0 15 9 18 20 8l44-45c11-10 11-28 0-38z" />
<glyph glyph-name="bomb" horiz-adv-x="1000" unicode="&#xeebf;" d="M671 683l45-1c3 0 6 2 6 6l0 13c0 3-2 6-5 6l-45 0c-3 1-6-2-6-5l0-13c0-3 2-6 5-6z m106 23c2-3 5-4 8-2l35 21c3 2 4 6 2 8l-7 12c-1 2-5 3-7 1l-36-21c-2-2-3-5-2-8l7-11z m-59 34c1-3 4-5 7-4l12 5c3 1 5 5 4 8l-14 35c-1 3-5 4-7 3l-13-5c-3-1-4-4-3-7l14-35z m-116-194v63h-81c11 38 37 66 87 47 30-11 58-29 88-41 19-8 50-19 69-3 24 20 9 59 0 82-5 16-30 9-25-6 4-11 23-52 5-58-12-4-31 6-42 10-30 11-58 29-88 41-67 28-105-17-120-72h-97v-62c-129-43-223-165-223-309 0-180 146-326 325-326s325 146 325 326c0 144-93 266-223 308z m-80-560c-20 0-36 17-35 37 0 20 17 35 37 34 115-3 159 125 161 131 6 17 24 27 41 24 2-1 3-1 4-2 19-6 29-26 23-45-2-7-62-184-231-179z" />
<glyph glyph-name="book-mark" horiz-adv-x="1000" unicode="&#xeec0;" d="M231 766v-842c0-12 7-15 15-7l240 247c8 8 21 8 29 0l240-247c8-8 15-5 15 7v842c0 12-10 22-21 22h-497c-12 0-21-10-21-22z" />
<glyph glyph-name="box" horiz-adv-x="1000" unicode="&#xeec1;" d="M147 574l-83-178c-4-9 3-18 12-17l312 31c5 0 9 3 10 7l101 227-343-63c-4-1-7-4-9-7z m329-60l-52-126c-2-5-6-7-10-8l-265-23c-7-1-12-6-11-13l5-208c0-5 4-10 10-11l312-66c7-2 15-2 23-2v454c0 17-6 18-12 3z m460-118l-83 178c-1 3-5 6-9 7l-343 63 101-227c2-4 5-6 10-7l312-31c9-1 16 8 12 17z m-85-39l-265 23c-4 1-8 3-10 8l-52 126c-6 15-12 14-12-3v-454c8 0 16 0 24 2l311 66c6 1 10 6 10 11l6 208c0 7-5 12-12 13z" />
<glyph glyph-name="briefcase" horiz-adv-x="1000" unicode="&#xeec2;" d="M588 219h-176v80h-349v-240c0-22 18-40 40-40h794c22 0 41 18 41 40v240h-350v-80z m309 361h-272v88c0 15-10 13-10 13h-254s-11-1-11-14v-87h-247c-22 0-40-18-40-41v-181h875v181c0 23-19 41-41 41z m-314 0h-191v71h191v-71z" />
<glyph glyph-name="broken" horiz-adv-x="1000" unicode="&#xeec3;" d="M594 686l-27 5-14-79 26-5 15 79z m306-452l-185 184-66 8 9-65 185-184c19-19 19-50 0-70l-53-52c-20-20-51-20-70 0l-184 184-65 9 8-66 184-185c51-50 133-50 184 0l53 53c50 51 50 134 0 184z m-286 399l64 48 16-21-63-48-17 21z m-7-53l78 14 5-26-79-15-4 27z m-189-268l-25 60-225 131c-24 14-32 44-18 68l38 64c13 24 44 32 67 18l225-131 65 7-24 62-225 132c-62 36-142 15-178-47l-38-65c-36-62-15-141 47-177l225-132 66 10z m-29-193l23-11 31 69-23 11-31-69z m-71 48l12-22 66 37-12 22-66-37z m9 81l-1-25 75-4 2 25-76 4z" />
<glyph glyph-name="bucket" horiz-adv-x="1000" unicode="&#xeec4;" d="M85 603c30-208 61-415 90-623 3-16 8-21 23-20 47 0 94 0 141 0 151 0 302 0 453 0 15 0 26 0 28 20 3 38 12 75 17 113 6 36 11 72 17 108-37 2-71 1-104 6-108 19-188 78-247 169-9 13-16 24-34 29-28 7-41 37-36 70 4 28 26 46 55 47 43 1 67-33 59-80-2-8-1-19 3-26 70-108 164-166 296-153 15 2 20 7 22 20 12 83 26 166 38 249 5 29 9 58 13 86h-834c0-5-1-10 0-15z m852 100c-2 21-14 33-35 36-9 1-19 1-29 1-125 0-249 0-374 0-123 0-247 0-370 0-10 0-20 0-30-1-22-3-34-16-36-37-2-22 9-37 29-43 9-3 18-4 27-4 254 0 507 0 761 0 10 0 20 1 29 4 21 7 31 23 28 44z" />
<glyph glyph-name="bucket1" horiz-adv-x="1000" unicode="&#xeec5;" d="M196 388c23-154 45-307 67-460 2-12 6-16 17-16 35 1 69 1 104 1 112 0 223 0 334 0 12 0 19 0 21 15 3 28 9 55 13 83 4 26 8 53 12 80-27 1-52 0-77 4-79 14-139 58-182 125-6 10-12 18-25 21-20 5-31 28-27 52 3 21 20 34 41 35 32 0 50-25 43-59-1-6 0-14 3-19 51-80 121-123 219-113 11 1 14 5 15 15 10 61 20 122 29 184 3 21 6 42 9 63h-616c0-4 0-8 0-11z m32 141c13 8 14 18 3 38-8 16-13 33-2 50 12 17 31 20 50 18 21-2 36-12 47-29 4-6 6-15 11-20 7-7 17-14 25-14 6 0 14 10 19 16 4 6 4 14 7 21 20 56 74 91 130 85 72-7 117-57 121-135 1-12 0-26 14-29 9-1 22 2 31 8 31 23 61 18 81-15 3-5 10-12 14-11 5 1 11 8 13 13 14 36-7 73-46 76-20 2-40-1-62-2-13 77-57 130-136 144-85 15-150-21-192-90-26 9-49 23-73 26-39 5-74-7-96-42-22-34-12-66 7-98 9-14 21-18 34-10z m598-67c-2 15-11 24-26 26-7 1-15 1-22 1l-276 0h-274c-7 0-14 0-22-1-16-2-25-12-26-28-2-15 6-26 21-31 7-2 14-3 20-3 188 0 375 0 563 0 7 0 14 1 21 3 15 5 22 17 21 33z m-94 168c40 0 72 32 72 72 0 41-33 74-72 74-39-1-72-34-73-73 0-40 33-73 73-73z m1 115c22 0 41-19 42-42 0-23-21-44-43-43-23 0-42 20-42 42 0 24 18 43 43 43z m-400-62c29 0 54 25 54 53s-24 52-53 52c-29-1-52-24-52-52 0-28 23-52 51-53z m1 75c13 0 21-8 22-22-1-13-7-21-21-22-13-1-24 9-23 22 1 13 9 22 22 22z" />
<glyph glyph-name="bucket2" horiz-adv-x="1000" unicode="&#xeec6;" d="M720 707h3c12 0 21 11 21 23s-9 23-21 23h-3c0 0-632 0-632 0 0 0-4 0-4 0-12 0-21-10-21-23s9-23 21-23h4v-727c0-18 14-33 33-33h566c19 0 33 15 33 33v353c51-18 100-30 138-30 37 0 65 11 75 35 28 64-83 165-213 235l0 134z m-304-78c-7 6-19 16-34 21-25 7-51 0-45-15v-240c0-11-9-21-20-21-12 0-21 10-21 21v222c-8 16 16-79-55-37-41 24-36-8-40-22v-265c0-12-9-21-21-21-11 0-21 9-21 21v265c-14 3-27 9-38 14v138h296l-1-81z m489-276c-10-22-82-22-185 17v165c130-74 196-155 185-182z" />
<glyph glyph-name="bug" horiz-adv-x="1000" unicode="&#xeec7;" d="M899 283c-62 30-123 60-185 91-5 3-9 7-13 12-9 13-19 26-29 40 23 15 46 31 69 46 19 13 38 25 56 38 11 7 17 17 14 30-2 12-10 21-23 22-7 0-16-3-23-7-42-28-84-56-127-85-3-1-5-3-9-6 5 14 11 27 13 40 8 43-6 80-32 114-4 6-5 10-2 17 10 29 23 55 46 77 13 12 29 19 48 19 18 0 30 12 30 28 0 15-14 29-31 28-45-1-80-20-106-56-15-21-27-44-41-67-17 7-35 11-54 11-19 0-37-4-54-11-14 23-26 46-41 67-26 36-61 55-106 56-17 1-31-13-31-28-1-16 12-28 30-28 19 0 34-7 48-19 22-21 36-48 46-77 3-7 2-11-2-17-26-33-40-71-32-113 2-14 8-26 13-41-4 3-7 5-10 7-42 28-84 56-126 84-7 4-16 7-23 7-13-1-21-10-23-22-3-13 3-23 13-30 19-12 38-25 57-37 23-16 46-32 69-47-10-14-20-27-30-40-3-5-7-9-12-12-62-31-123-61-185-91-31-15-24-11-25-41-1-7 3-12 8-15 9-6 19-6 28-1 6 3 11 6 17 9 43 22 86 43 128 64-4-30-10-59-12-89-1-15-5-26-14-38-31-42-62-84-93-126-11-14-9-32 4-41 13-10 31-7 41 7 9 11 18 23 27 35 15 19 30 39 46 60 4-12 7-23 11-33 24-64 62-117 121-153 21-12 21-12 38 5 29 30 43 65 43 107 0 110 0 221 0 331 0 19 11 29 28 29 1 0 2 0 3 0 1 0 1 0 2 0 18 0 28-10 28-29 0-110 0-221 0-331 0-42 14-77 43-107 17-17 17-17 38-5 59 36 97 89 121 153 4 10 7 21 11 33 16-21 31-41 46-60 9-12 18-24 27-35 11-14 28-17 41-7 13 9 15 27 5 41-31 42-62 85-94 126-9 12-13 23-14 38-2 30-7 59-11 89 41-21 84-42 127-64 6-3 11-6 17-9 10-5 19-5 28 1 6 3 9 8 9 15-1 30 6 26-25 41z m-371 225c0-13-11-24-24-24h-8c-13 0-24 11-24 24v52c0 13 11 24 24 24h8c13 0 24-11 24-24v-52z" />
<glyph glyph-name="building" horiz-adv-x="1000" unicode="&#xeec8;" d="M810 788h-620v-73h34v-803h552v803h34v73z m-288-364h114v-114h-114v114z m-158 158h115v-115h-115v115z m115-430h-115v115h115v-115z m0 158h-115v114h115v-114z m157-158h-114v115h114v-115z m0 315h-114v115h114v-115z" />
<glyph glyph-name="bulb-alt" horiz-adv-x="1000" unicode="&#xeec9;" d="M500 698c10 0 18 8 18 18v54c0 10-8 18-18 18s-18-8-18-18v-54c0-10 8-18 18-18z m-188-38c4-5 10-9 16-9 3 0 6 1 9 3 8 5 11 16 6 24l-26 47c-5 8-16 11-25 6-8-4-11-15-6-24l26-47z m-101-103l-46 27c-9 5-20 2-25-7-4-8-1-19 7-24l46-27c3-2 6-2 9-2 6 0 12 3 15 9 5 8 2 19-6 24z m-56-172h-52c-10 0-18-8-18-18 0-10 8-18 18-18h52c10 0 18 8 18 18 0 10-8 18-18 18z m743 0h-53c-10 0-18-8-18-18 0-10 8-18 18-18h53c9 0 17 8 17 18s-8 18-17 18z m-38 192c-5 9-16 12-24 7l-46-27c-9-5-12-16-7-24 3-6 9-9 16-9 3 0 6 1 8 2l46 27c9 5 12 16 7 24z m-196 77c2-2 6-3 8-3 7 0 12 4 16 9l26 47c5 8 2 19-6 24-9 5-19 2-24-6l-27-47c-5-8-2-19 7-24z m-184-360c2-12 8-16 20-16 12 0 19 4 21 16l14 96c1 6 2 13 2 19v47c0 21-14 32-37 32s-36-11-36-32v-47c0-6 1-13 2-19l14-96z m20-42c-21 0-38-18-38-40s17-39 38-39 38 18 38 39-17 40-38 40z m-66 361c-114-32-184-109-202-225-19-113 21-207 113-277 15-12 32-26 37-43 15-45 44-61 89-56 10 2 20 1 30 1h42c43 0 53 8 72 46 8 17 18 36 33 46 88 64 129 149 125 257-8 169-176 295-339 251z m189-459c-19-15-36-34-50-54-29-46-112-48-143-4-17 23-37 46-60 63-77 61-108 165-75 259 32 93 118 152 217 149 113-3 207-106 207-234-1-70-33-132-96-179z m-64-176c-19 1-39 0-58 0-19 0-39 1-58 0-7-1-17-4-20-10-3-5 1-15 5-21 32-46 114-46 146 0 4 5 8 16 5 21-2 6-13 9-20 10z" />
<glyph glyph-name="bullet" horiz-adv-x="1000" unicode="&#xeeca;" d="M645 464c0 18-1 36-4 54-15 81-55 151-101 218-9 13-18 26-29 40-7 9-14 14-16 10-2-2-3-4-4-6-32-52-67-102-96-156-30-53-41-112-40-174 1-111 0-223 0-335v-11c0-6 10-11 21-11h246c12 0 22 3 22 8 1 3 1 5 1 8 0 119 0 237 0 355z m-22-404h-245c-12 0-22-10-22-22v-105c0-11 10-21 22-21h245c11 0 21 10 21 22v104c0 12-10 22-21 22z" />
<glyph glyph-name="bullhorn" horiz-adv-x="1000" unicode="&#xeecb;" d="M323 547c-17-6-33-15-51-17-35-5-71-6-106-9l-48-4c-11-1-14-4-13-15 0-2 0-5 1-7-12-1-21-2-31-3-10-1-13-4-12-14 3-50 7-99 11-149 0-10 4-13 14-12 10 0 20 1 31 2 0-4 0-6 0-9 1-10 3-11 13-10 16 1 32 2 48 3 14 1 14 1 21-12 9-19 18-38 27-57l105-215c7-13 10-15 24-13 19 1 38 2 57 4 10 1 13 4 8 14-5 11-11 23-17 35-34 69-68 139-103 208-4 10-5 19 2 28 7 8 16 10 26 7 110-27 219-54 328-81 14-3 28-7 42-10-12 158-23 316-35 474-3 0-5-1-8-2-111-45-223-91-334-136z m430 140c-3 3-7 8-10 8-18 0-37-2-56-3 12-162 24-322 36-483 17 1 33 2 49 3 13 1 16 4 15 18l-33 450c-1 2 0 5-1 7z m102-296c-12 7-26 3-33-9-5-10-3-22 7-29 19-15 39-29 59-43 2-1 4-2 5-2 12-4 23 1 28 12 5 8 2 22-6 28-20 15-40 29-60 43z m-38 138c9-6 20-5 29 3 17 16 34 32 50 49 3 3 5 7 6 8 3 13-1 23-9 28-10 6-21 5-29-2-17-17-34-33-50-50-3-2-5-5-6-9-4-10 0-21 9-27z m98-38c-25-1-51-3-76-6-11-1-18-11-18-22 0-11 6-20 18-23 0 0 2-1 3-1 26 2 52 4 77 6 12 2 19 13 19 24-1 12-11 22-23 22z" />
<glyph glyph-name="bullseye" horiz-adv-x="1000" unicode="&#xeecc;" d="M890 594c-14 1-29 1-43 2-5 0-9 1-11 8-1 5-7 10-11 17 10 27 21 56 33 86l-2 2c-8-5-15-10-22-15-18-11-35-22-52-34-4-3-8-7-10-12-9-21-17-42-25-64-1-3-4-7-6-8-17-11-33-22-50-33-64 84-148 132-253 141-92 8-175-18-247-76-142-116-168-317-69-464 105-156 309-196 463-106 161 94 204 283 150 420-20-12-39-24-58-37-2-2-2-8-1-11 7-29 11-58 9-88-5-76-36-140-93-190-58-52-127-75-205-69-138 12-245 123-252 262-9 163 130 300 293 288 79-6 144-40 195-100 2-3 4-6 6-9l-73-47c-40 47-91 71-154 69-44-1-83-17-116-47-71-62-85-163-34-243 48-76 146-107 230-72 87 36 128 126 113 204-7-5-15-9-22-14-13-9-27-17-40-26-4-3-7-8-8-13-14-57-58-93-116-94-63 0-118 56-116 119 3 76 72 129 145 111 22-5 41-16 58-34-18-12-35-23-53-34-1-1-6 0-8 2-21 10-45 7-62-9-16-16-20-40-11-61 10-21 35-34 58-29 24 5 41 24 42 48 1 6 3 10 8 13 98 63 195 126 293 189 4 3 9 5 14 4 23 0 46-2 68-3 4-1 8-1 11 1 26 17 53 34 81 53-17 1-32 2-47 3z" />
<glyph glyph-name="calendar" horiz-adv-x="1000" unicode="&#xeecd;" d="M739 697c0 13 0 25 0 37-1 23-15 43-38 51-23 7-48-1-62-19-8-11-12-23-12-36v-33c0-5-4-9-9-9h-59c-5 0-10 4-10 9 0 11 1 22 0 33 0 26-13 46-35 54-37 13-75-12-76-50 0-12 0-24 0-37 0-5-4-9-10-9h-60c-5 0-10 4-10 9 1 16 2 31 0 45-2 21-16 36-36 43-20 6-39 2-55-11-15-12-19-28-19-46 0-11 0-21 0-31 0-6-4-10-10-10h-164c-6 0-10-4-10-9v-756c0-5 5-9 10-9h852c5 0 10 4 10 9v756c0 5-5 9-10 9h-178c-5 0-9 4-9 10z m-413-747h-214c-6 0-10 4-10 9v150c0 5 5 9 10 9h214c5 0 9-4 9-9v-150c0-5-4-9-9-9z m0 207h-214c-6 0-10 4-10 9v158c0 5 5 9 10 9h214c5 0 9-4 9-9v-158c0-5-4-9-9-9z m0 215h-214c-6 0-10 4-10 9v152c0 5 5 9 10 9h214c5 0 9-4 9-9v-152c0-5-4-9-9-9z m285-422h-227c-5 0-9 4-9 9v149c0 5 4 10 9 10h227c5 0 9-5 9-10v-149c0-5-4-9-9-9z m10 212c-1-3-5-6-10-6h-227c-5 0-9 5-9 10v158c0 5 2 9 5 10l6 0c74 0 149 0 223 0 9 0 12-2 12-11 0-52 0-104 0-156 0-2 0-4 0-5z m0 215c0-3-4-5-10-5h-227c-5 0-9 4-9 9v152c0 5 2 10 5 10h6c74 0 149 0 223 0 9 0 12-2 12-12 0-49 0-99 0-149v-5h0z m48-44h219c5 0 9-4 9-9v-158c0-5-4-10-9-10h-219c-6 0-10 5-10 10v158c0 5 4 9 10 9z m219-383h-219c-6 0-10 4-10 9v149c0 6 4 10 10 10h219c5 0 9-4 9-10v-149c1-5-4-9-9-9z m0 422h-219c-6 0-10 4-10 9v152c0 5 4 9 10 9h219c5 0 9-4 9-9v-152c1-5-4-9-9-9z" />
<glyph glyph-name="camera-alt" horiz-adv-x="1000" unicode="&#xeece;" d="M917 575h-542v62c0 11-9 20-21 20h-175c-11 0-20-9-20-20v-62h-76c-11 0-20-9-20-20v-491c0-12 9-21 20-21h834c11 0 20 9 20 21v491c1 11-9 20-20 20z m-258-334c-26-62-88-106-160-106-71 0-133 43-159 104-9 21-14 44-14 69 0 95 77 173 173 173s173-77 173-173c0-24-5-46-13-67z m-58 68c0-55-45-101-101-101s-101 46-101 101 45 101 101 101 101-45 101-101z" />
<glyph glyph-name="camera" horiz-adv-x="1000" unicode="&#xeecf;" d="M819 567h-124v68c0 32-22 58-48 58h-294c-26 0-48-26-48-58v-68h-9c-39 0-79 0-118 0-65 0-115-50-115-115v-329c0-66 49-116 115-116h642c7 0 14 0 21 2 59 10 97 56 97 116v324c0 69-50 118-119 118z m-439 46c0 22 18 39 39 39h162c21 0 39-17 39-39v-8c0-21-18-39-39-39h-162c-21 0-39 18-39 39v8z m118-527c-110 0-200 92-199 203 1 110 91 200 202 199 111-1 201-91 200-201-1-112-91-202-203-201z m2 336c-74 0-136-60-136-133 0-76 61-137 135-138 74 0 137 62 136 136 0 75-60 135-135 135z" />
<glyph glyph-name="card" horiz-adv-x="1000" unicode="&#xeed0;" d="M865 652h-730c-40 0-72-32-72-72v-33h0v-427c0-39 32-72 72-72h730c40 0 73 32 73 72v460c0 40-33 72-73 72z m-393-282c0 6 5 12 11 12h226c6 0 11-6 11-12v-30c0-6-5-12-11-12h-226c-6 0-11 5-11 12v30z m-50-118c0-6-5-11-11-11h-218c-6 0-12 5-12 11v196c0 6 6 11 12 11h218c6 0 11-5 11-11v-196z m349 0c0-6-5-11-11-11h-277c-6 0-11 5-11 11v31c0 6 5 11 11 11h277c6 0 11-5 11-11v-31z m48 165c0-6-5-11-12-11h-324c-6 0-11 5-11 11v31c0 6 5 11 11 11h324c7 0 12-5 12-11v-31z" />
<glyph glyph-name="cart-alt" horiz-adv-x="1000" unicode="&#xeed1;" d="M820 268h-399c-6 0-13 4-16 10l-183 419c-2 6-9 10-15 10h-134c-6 0-11-5-11-11v-33c0-6 5-11 11-11h98c6 0 13-4 15-10l184-419c2-6 9-10 15-10h435c6 0 11 5 11 11v33c0 6-5 11-11 11z m-346-110c-45 0-82-37-82-82s37-83 82-83 83 37 83 83-37 82-83 82z m275 0c-46 0-83-37-83-82s37-83 83-83 82 37 82 83-37 82-82 82z m181 439h-582c-6 0-9-4-7-10l14-35c2-5 9-10 15-10h538c6 0 13 5 15 10l14 35c2 6-1 10-7 10z m-88-219h-406c-6 0-9-5-7-10l14-35c2-6 9-10 15-10h362c6 0 13 4 15 10l14 35c2 5-1 10-7 10z m44 110h-494c-6 0-9-5-7-10l14-35c2-6 9-10 15-10h450c6 0 13 4 15 10l14 35c2 5-1 10-7 10z" />
<glyph glyph-name="cart" horiz-adv-x="1000" unicode="&#xeed2;" d="M893 569l-631 0-27 91c-4 14-15 25-28 28l-93 25c-4 1-7 2-11 2-18 0-34-13-39-30-3-11-2-22 4-31s14-17 25-20l70-19 143-516c-20-10-33-31-33-54 0-33 27-61 60-61s60 28 60 61c0 1 0 2 0 2h292c0-1 0-1 0-2 0-33 27-61 60-61s60 28 60 61c0 31-23 56-53 60-72 12-368 26-368 26l-9 38h368c19 0 36 13 41 31l80 281h29c25 0 45 19 45 44 0 24-20 44-45 44z m-469-306h-70c-1 0-4 0-5 4-2 6-4 13-4 13l-55 191c0 1 0 2 1 3 1 1 1 1 2 1h84c2 0 3-1 3-2l46-205 0-1c1 0 1-1 1-1 0-2-2-3-3-3z m176 209l-37-207c-1-1-2-2-3-2h-52c-2 0-3 1-3 2l-38 206c0 1 0 2 1 3 0 1 1 1 2 1h127c1 0 2 0 2-1 1-1 1-2 1-2z m177-1l-59-206c0-1-1-2-3-2h-71c-1 0-2 0-3 1 0 1-1 2 0 3l46 206c0 1 1 2 3 2h84c1 0 2 0 2-1 1-1 1-2 1-3z" />
<glyph glyph-name="cc" horiz-adv-x="1000" unicode="&#xeed3;" d="M500 788c-242 0-437-196-437-438 0-241 195-438 437-438s438 197 438 438c0 242-196 438-438 438z m-60-614c-13-2-27-3-43-3-27 0-51 4-72 13-20 9-38 21-52 37-14 16-24 35-31 57-7 22-11 46-11 71 0 26 4 50 11 72 8 22 18 41 32 57 14 16 32 29 52 38 20 9 44 13 70 13 15 0 29-1 42-3 13-2 27-6 42-12 0-9-2-19-5-28-3-9-7-18-11-28-11 4-21 7-30 8s-19 3-31 3c-30 0-54-10-71-30s-25-50-25-90c0-78 34-117 100-117 12 0 23 0 32 2 9 2 19 4 30 8 4-9 8-18 10-28 3-9 5-19 6-28-16-6-31-10-45-12z m284 0c-14-2-28-3-43-3-28 0-52 4-72 13-21 9-38 21-52 37-14 16-25 35-32 57-7 22-10 46-10 71 0 26 4 50 11 72 7 22 18 41 32 57s31 29 52 38c20 9 43 13 69 13 16 0 30-1 43-3 13-2 27-6 42-12-1-9-2-19-6-28-3-9-6-18-10-28-12 4-22 7-30 8-9 2-19 3-31 3-31 0-55-10-71-30-17-20-25-50-25-90 0-78 33-117 100-117 12 0 22 0 31 2s19 4 31 8c4-9 7-18 10-28 3-9 5-19 6-28-17-6-32-10-45-12z" />
<glyph glyph-name="charging" horiz-adv-x="1000" unicode="&#xeed4;" d="M926 423h-50c-6 0-11 5-11 11v124c0 6-5 11-11 11h-780c-6 0-11-5-11-11v-415c0-6 5-11 11-11h780c7 0 12 5 12 11v123c0 6 5 12 11 12h49c6 0 11 5 11 11v123c1 6-5 11-11 11z m-135-206c0-7-5-12-11-12h-634c-6 0-11 5-11 12v267c0 6 5 11 11 11h634c6 0 11-5 11-11v-267z m-341 126c-46 13-92 25-138 38l0-1c62-36 125-73 188-109-4 28-7 55-11 83 43-11 85-23 126-34l0 1c-57 36-114 72-172 109 2-29 5-58 7-87z" />
<glyph glyph-name="chat" horiz-adv-x="1000" unicode="&#xeed5;" d="M937 633c0 11 0 23-3 34-14 62-64 101-129 101-204 0-408 0-612 0-75 0-130-56-130-131-1-133-1-265 0-398 0-11 1-22 3-32 14-59 63-99 124-100 25 0 50 0 78 0-4-19-7-36-12-52-10-35-23-68-46-97-10-13-5-24 11-25 11-1 24-1 34 3 40 18 79 37 117 58 45 25 74 67 108 104 6 6 11 9 20 9 103 0 206-1 308 0 75 1 129 57 130 131 0 132 0 263-1 395z" />
<glyph glyph-name="check-alt" horiz-adv-x="1000" unicode="&#xeed6;" d="M415 134c-8-8-17-11-27-11-9 0-18 3-26 11l-162 162 52 53 136-137 363 366 49-53-385-391z" />
<glyph glyph-name="check-circled" horiz-adv-x="1000" unicode="&#xeed7;" d="M687 551c-3 3-9 3-13-1-83-88-166-176-249-264-4-4-10-4-13 0l-89 88c-3 4-9 4-13 0l-53-53c-4-4-4-10 0-14l158-158c3-3 9-3 13 1 105 111 210 223 316 335 3 4 3 9-1 13-18 18-37 35-56 53z m-187 237c-242 0-437-196-437-438s195-438 437-438 438 196 438 438-196 438-438 438z m0-807c-203 0-369 166-369 369s166 369 369 369c204 0 369-165 369-369s-165-369-369-369z" />
<glyph glyph-name="check" horiz-adv-x="1000" unicode="&#xeed8;" d="M396 106l-193 192c-4 5-4 12 0 17l66 65c4 4 11 4 16 0l108-108c4-4 11-4 16 0 101 108 202 215 303 322 4 5 12 5 16 1l68-65c5-4 5-11 1-16-129-136-257-272-385-408-4-5-12-5-16 0z" />
<glyph glyph-name="checked" horiz-adv-x="1000" unicode="&#xeed9;" d="M705 73h-510c-7 0-12 6-12 12v510c0 7 5 13 12 13h392c7 0 17 4 22 9l102 102c5 5 3 9-4 9h-632c-7 0-12-6-12-13v-750c0-7 5-12 12-12h750c7 0 12 5 12 12v472c0 6-4 8-8 3l-103-102c-5-5-9-15-9-21v-232c0-6-5-12-12-12z m-400 365l-67-68c-5-5-5-12 0-17l186-186c5-5 13-5 18 0l492 492c5 5 5 13 0 17l-67 68c-5 5-13 5-18 0l-407-408c-5-5-13-5-18 0l-101 102c-5 4-13 4-18 0z" />
<glyph glyph-name="children-care" horiz-adv-x="1000" unicode="&#xeeda;" d="M654 435c-5 5-9 10-15 15-14-78-86-118-148-114-53 3-115 37-131 109-65-61-131-123-197-185 55-54 154-61 219-12 24 18 45 40 67 61 7 6 12 12 18 18v-398c0-9 8-17 18-17h29c10 0 18 8 18 17v399c62-59 125-118 188-178 3 4 7 7 10 11 55 64 50 153-11 212-21 21-43 42-65 62z m-300 58c2-2 4-4 6-5 14 62 54 99 121 112-4 3-7 5-9 7-47 44-94 89-142 133-16 16-32 32-49 48h-1c-2-2-3-4-5-5-60-61-59-160 3-219 25-24 51-47 76-71z m284-3c66 62 132 123 199 186-1 1-2 1-3 2-66 58-167 58-233-2-26-23-52-48-77-72-2-1-3-3-4-4 66-14 105-51 118-110z m-259-23c0-63 57-113 122-112 65 1 120 53 119 113-1 63-55 115-121 114-68-2-120-49-120-115z m120 81c47 1 85-35 86-80 0-43-39-79-84-80-47-1-87 35-87 79 0 47 37 81 85 81z m1-134c31 0 58 25 57 54 0 30-26 55-58 55-33-1-57-24-57-55-1-30 27-55 58-54z" />
<glyph glyph-name="clip" horiz-adv-x="1000" unicode="&#xeedb;" d="M886 445c-9 0-17-4-23-9l0 0-400-401c-35-35-81-54-131-54s-95 19-130 54c-72 72-72 189 0 260l386 387c25 24 57 38 92 38 35 0 67-14 92-38 24-25 37-54 35-84-1-30-15-60-40-85l-309-309c-14-14-33-22-53-22-38 0-58 24-58 48 0 20 8 38 22 52l267 266-1 0c5 6 8 14 8 22 0 19-15 34-34 34-8 0-15-3-21-8l-1 0-265-265c-30-30-43-59-43-101 0-33 12-62 34-83 23-21 54-33 92-33h0c39 0 75 15 102 43l308 308c78 78 80 189 5 265-37 37-87 58-140 58-53 0-103-21-140-58l-386-387c-99-98-99-258 0-357 47-47 111-74 178-74s131 27 179 74l400 402s9 8 9 23c0 19-16 34-34 34z" />
<glyph glyph-name="clock-time" horiz-adv-x="1000" unicode="&#xeedc;" d="M500 788c-239 0-432-193-437-428-5-245 189-444 430-448 251-3 440 198 444 429 5 246-194 447-437 447z m3-788c-196-1-353 156-353 350 0 193 157 350 350 350 193 0 349-157 350-350 1-186-150-348-347-350z m27 612h-59c-4 0-7-3-7-7v-210c0-4-4-7-8-7h-134c-4 0-7-3-7-7v-60c0-4 3-7 7-7h208c4 0 7 3 7 7v284c0 4-3 7-7 7z" />
<glyph glyph-name="close-circled" horiz-adv-x="1000" unicode="&#xeedd;" d="M703 501c6 6 6 16 0 22l-33 34c-6 6-16 6-22 0-46-47-91-93-137-140-6-6-16-6-22 0-46 47-91 93-137 140-6 6-16 6-22 0-11-12-22-23-33-35-6-6-6-16 0-22 45-45 90-92 137-139 6-6 6-16 0-22-46-47-92-93-137-140-6-6-6-16 0-22l33-34c7-6 16-6 22 0l137 139c6 6 16 6 22 0 46-46 91-92 137-139 6-6 16-6 22 0 11 12 22 23 33 34 6 6 6 16 0 22-45 46-90 93-136 140-6 6-6 16 0 22 45 47 91 93 136 140z m-203 287c-242 0-437-196-437-438s195-438 437-438 438 196 438 438-196 438-438 438z m0-807c-203 0-369 166-369 369s166 369 369 369 369-165 369-369-165-369-369-369z" />
<glyph glyph-name="close-line-circled" horiz-adv-x="1000" unicode="&#xeede;" d="M682 558l-182-182-182 182-26-26 182-182-182-182 26-26 182 182 182-182 26 26-182 182 182 182-26 26z m127 101c-85 86-188 129-309 129s-224-43-309-129-128-188-128-309 42-224 128-309 188-129 309-129 224 43 309 129 129 188 129 309-43 224-129 309z m-25-593c-77-77-172-116-284-116s-207 39-284 116-116 172-116 284 39 207 116 284 172 116 284 116 207-39 284-116 116-172 116-284-39-207-116-284z" />
<glyph glyph-name="close-line-squared-alt" horiz-adv-x="1000" unicode="&#xeedf;" d="M63 720v-740c0-37 30-67 67-67h740c37 0 67 30 67 67v740c0 37-30 68-67 68h-740c-37 0-67-31-67-68z m780-780h-686c-37 0-67 30-67 67v686c0 37 30 67 67 67h686c37 0 67-30 67-67v-686c0-37-30-67-67-67z m-573 148l230 229 230-229 33 32-230 230 230 230-33 33-230-230-230 230-32-33 229-230-229-230 32-32z" />
<glyph glyph-name="close-line-squared" horiz-adv-x="1000" unicode="&#xeee0;" d="M63 788v-876h875v876h-875z m847-848h-820v820h820v-820z m-640 148l230 229 230-229 33 32-230 230 230 230-33 33-230-230-230 230-32-33 229-230-229-230 32-32z" />
<glyph glyph-name="close-line" horiz-adv-x="1000" unicode="&#xeee1;" d="M763 650l37-37-262-263 262-262-37-38-263 263-262-263-38 38 263 262-263 263 38 37 262-262z" />
<glyph glyph-name="close-squared-alt" horiz-adv-x="1000" unicode="&#xeee2;" d="M756 528c9 8 9 17 0 26l-51 52c-3 3-8 5-13 5-3 0-5-1-9-2-3-2-5-4-8-6l-152-151c-13-13-33-13-46 0l-155 154c-4 4-8 5-14 5-2 0-4 0-7-2-4-1-7-4-10-6l-47-49c-9-9-9-18 0-27l156-154c13-13 13-34 0-46l-156-155c-3-4-5-8-5-14 0-5 2-10 5-13l52-51c4-3 8-5 14-5 4 0 8 2 12 5l155 155c13 13 33 13 46 0l155-155c4-4 8-5 14-5 4 0 8 2 12 5l52 51c3 3 5 8 5 13 0 6-2 10-5 14l-157 156c-12 13-12 34 1 46l156 154z m150 228c-22 21-48 32-78 32h-656c-30 0-56-11-77-32s-32-48-32-78v-656c0-30 10-56 32-77s47-32 77-32h656c30 0 56 10 78 32 21 21 32 47 32 77v656c0 30-11 56-32 78z m-23-734c0-15-6-28-16-39-11-10-24-16-39-16h-656c-15 0-28 6-38 16-11 11-17 24-17 39v656c0 15 6 28 17 39 10 10 23 16 38 16h656c15 0 28-6 39-16 10-11 16-24 16-39v-656z" />
<glyph glyph-name="close-squared" horiz-adv-x="1000" unicode="&#xeee3;" d="M63 788v-876h875v876h-875z m49-826v776h776v-776h-776z m644 592l-50 52c-4 3-9 5-14 5-4 0-8-2-14-5l-178-177-178 177c-4 3-8 5-14 5-3 0-8-2-13-5l-51-52c-9-9-9-18 0-27l180-177-180-178c-3-4-5-8-5-14 0-5 2-10 5-13l52-51c4-3 8-5 14-5 4 0 8 2 12 5l178 179 178-179c4-3 8-5 14-5 4 0 8 2 12 5l52 51c3 3 5 8 5 13 0 6-2 10-5 14l-180 179 180 177c9 8 9 17 0 26z" />
<glyph glyph-name="close" horiz-adv-x="1000" unicode="&#xeee4;" d="M710 643c-65-65-129-131-194-197-9-9-23-9-31 0-65 66-130 132-195 197-8 9-22 9-31 0-15-16-31-32-47-48-8-9-8-23 0-32 63-64 128-130 194-197 9-9 8-23 0-32-65-66-130-132-195-198-8-9-8-23 0-31l48-48c9-9 23-9 31 0l195 197c8 9 22 9 31 0 64-66 129-131 194-197 8-9 22-9 31 0 16 16 31 32 47 48 9 9 9 23 0 32-63 65-128 130-194 197-8 9-8 23 0 32 65 66 130 132 195 198 8 9 8 23 0 32l-48 48c-9 8-23 8-31-1z" />
<glyph glyph-name="cloud-download" horiz-adv-x="1000" unicode="&#xeee5;" d="M861 405c-20 17-28 34-32 60-12 89-63 151-145 182-86 33-170 24-242-37-15-14-30-21-48-23-34 42-86 69-144 69-104 0-187-84-187-187 0-46 16-87 43-120-31-52-37-113-16-174 30-87 107-141 204-141 71 0 143 0 214 0 73 0 146 0 219 0 90 1 168 55 198 139 30 83 6 175-64 232z m-776 64c0 91 74 164 165 164 51 0 97-23 127-60 7-9 13-18 19-29 7-15 13-32 16-49 1-9 2-17 2-26 0-91-74-164-164-164-29 0-57 7-80 20-10 6-19 12-28 20-7 6-13 12-19 19-23 28-38 65-38 105z m814-279c-23-76-91-126-173-126-72 0-143 0-215 0-73 0-146 0-219 0-84 0-153 50-176 127-15 48-10 95 12 136 9-8 20-15 31-22-15-28-18-61-9-96 17-66 71-107 145-107 140 0 281 0 422 0 76 0 133 41 149 108 17 66-14 129-81 165-9 6-19 20-19 30 2 89-38 156-111 182-82 28-155 2-209-76-3-4-6-8-11-13l-1 0c-3 20-9 39-18 57 11 2 20 8 31 19 64 65 144 77 226 46 79-31 125-92 129-179 0-23 9-36 27-49 67-46 94-126 70-202z m-742 304c4 3 10 3 13 0l51-51v136c0 5 4 9 9 9h36c5 0 9-4 9-9v-140l54 55c4 3 9 3 13 0l21-22c4-3 4-9 0-12l-107-108c-4-3-9-3-13 0l-107 107c-4 4-4 10 0 13l21 22z" />
<glyph glyph-name="cloud-refresh" horiz-adv-x="1000" unicode="&#xeee6;" d="M861 405c-20 17-28 34-32 60-12 89-63 151-145 182-86 33-170 24-242-37-15-14-30-21-48-23-34 42-86 69-144 69-104 0-187-84-187-187 0-46 16-87 43-120-31-52-37-113-16-174 30-87 107-141 204-141 71 0 143 0 214 0 73 0 146 0 219 0 90 1 168 55 198 139 30 83 6 175-64 232z m-776 64c0 91 74 164 165 164 51 0 97-23 127-60 7-9 13-18 19-29 7-15 13-32 16-49 1-9 2-17 2-26 0-91-74-164-164-164-29 0-57 7-80 20-10 6-19 12-28 20-7 6-13 12-19 19-23 28-38 65-38 105z m814-279c-23-76-91-126-173-126-72 0-143 0-215 0-73 0-146 0-219 0-84 0-153 50-176 127-15 48-10 95 12 136 9-8 20-15 31-22-15-28-18-61-9-96 17-66 71-107 145-107 140 0 281 0 422 0 76 0 133 41 149 108 17 66-14 129-81 165-9 6-19 20-19 30 2 89-38 156-111 182-82 28-155 2-209-76-3-4-6-8-11-13l-1 0c-3 20-9 39-18 57 11 2 20 8 31 19 64 65 144 77 226 46 79-31 125-92 129-179 0-23 9-36 27-49 67-46 94-126 70-202z m-639 211c-23-2-43 7-59 26l25 25h-76v-77c8 9 16 16 24 25 16-18 34-30 57-35 22-5 44-4 66 5 35 16 56 43 64 82h-39c-8-30-34-50-62-51z m-9 136c26 2 48-12 59-28-7-7-15-15-24-23h75v75c-8-8-16-15-24-23-34 36-75 48-122 29-36-14-57-42-65-81h39c8 29 33 49 62 51z" />
<glyph glyph-name="cloud-upload" horiz-adv-x="1000" unicode="&#xeee7;" d="M861 405c-20 17-28 34-32 60-12 89-63 151-145 182-86 33-170 24-242-37-15-14-30-21-48-23-34 42-86 69-144 69-104 0-187-84-187-187 0-46 16-87 43-120-31-52-37-113-16-174 30-87 107-141 204-141 71 0 143 0 214 0 73 0 146 0 219 0 90 1 168 55 198 139 30 83 6 175-64 232z m-776 64c0 91 74 164 165 164 51 0 97-23 127-60 7-9 13-18 19-29 7-15 13-32 16-49 1-9 2-17 2-26 0-91-74-164-164-164-29 0-57 7-80 20-10 6-19 12-28 20-7 6-13 12-19 19-23 28-38 65-38 105z m814-279c-23-76-91-126-173-126-72 0-143 0-215 0-73 0-146 0-219 0-84 0-153 50-176 127-15 48-10 95 12 136 9-8 20-15 31-22-15-28-18-61-9-96 17-66 71-107 145-107 140 0 281 0 422 0 76 0 133 41 149 108 17 66-14 129-81 165-9 6-19 20-19 30 2 89-38 156-111 182-82 28-155 2-209-76-3-4-6-8-11-13l-1 0c-3 20-9 39-18 57 11 2 20 8 31 19 64 65 144 77 226 46 79-31 125-92 129-179 0-23 9-36 27-49 67-46 94-126 70-202z m-742 254c4-3 10-3 13 0l51 51v-136c0-5 4-9 9-9h36c5 0 9 4 9 9v140l54-55c4-3 9-3 13 0l21 22c4 3 4 9 0 12l-107 108c-4 3-9 3-13 0l-107-107c-4-4-4-10 0-13l21-22z" />
<glyph glyph-name="cloud" horiz-adv-x="1000" unicode="&#xeee8;" d="M860 406c-21 17-29 35-33 61-12 91-64 154-148 186-87 33-172 24-245-39-22-18-41-25-69-23-93 8-168-49-193-138-4-14-14-30-26-40-75-62-102-152-71-241 31-88 110-143 207-143 73 0 146 0 219 0 74 0 148 0 222 0 92 0 171 56 201 141 31 85 7 178-64 236z m39-219c-25-77-94-127-177-128-73 0-146 0-218 0-74 0-149 0-223 0-86 0-156 50-180 129-24 80 4 158 74 209 12 9 22 25 25 39 18 85 92 140 179 123 26-5 40 0 59 19 65 67 146 79 230 47 80-31 128-93 131-182 1-24 9-37 28-50 69-47 96-128 72-206z m-116 189c-10 5-21 20-20 30 2 91-39 159-113 185-84 29-158 2-213-77-3-4-6-8-11-13-103 51-177 11-191-100-2-10-12-22-22-27-65-38-95-99-77-167 17-67 73-109 147-109 144 0 287 0 430 0 78 1 135 42 152 110 17 68-15 131-82 168z" />
<glyph glyph-name="code-not-allowed" horiz-adv-x="1000" unicode="&#xeee9;" d="M903 520c-22 52-53 99-94 139-40 41-87 72-139 94-54 23-111 35-170 35-59 0-116-12-170-35-52-22-99-53-139-94-41-40-72-87-94-139-23-54-34-111-34-170 0-59 11-116 34-170 22-52 53-99 94-139 40-41 87-72 139-94 54-23 111-35 170-35 59 0 116 12 170 35 52 22 99 53 139 94 41 40 72 87 94 139 23 54 35 111 35 170 0 59-12 116-35 170z m-403 178c93 0 180-36 246-102 57-57 92-131 100-210l-242 104c-3 1-5 0-5-3v-64c0-2 2-5 5-6l174-67c3-1 3-3 0-4l-151-59-92 92 28 116c3 14 5 24 5 29 0 7-2 13-7 17-4 4-11 6-20 6-10 0-16-3-20-9s-7-16-11-32l-20-83-202 203c61 46 134 72 212 72z m-276-136l102-101-172-75c7 65 31 125 70 176z m276-560c-93 0-180 36-246 102-56 56-90 128-99 205l242-104c2-1 4 0 4 2v65c0 3-2 5-5 6l-174 69c-2 1-2 2 0 3l155 60 88-89-28-115c-3-16-5-26-5-30 0-16 9-23 27-23 7 0 12 1 16 5 4 3 7 7 8 13 2 6 4 13 7 23l20 83 202-202c-60-47-134-73-212-73z m276 136l-99 98 168 73c-7-62-31-121-69-171z" />
<glyph glyph-name="code" horiz-adv-x="1000" unicode="&#xeeea;" d="M241 298l184-80c2-1 3 0 3 2v47c0 2-2 4-3 5l-127 49c-1 1-1 2 0 3l127 49c1 0 3 2 3 4v47c0 2-1 3-3 2l-184-79c-2-1-3-3-3-5v-39c0-2 1-4 3-5z m229-118c5 0 9 2 12 4 3 2 5 6 6 10 1 4 3 9 5 17l53 218c2 10 4 17 4 21 0 5-2 10-5 13-4 3-9 4-15 4-7 0-12-2-15-6-2-5-5-13-8-24l-52-218c-3-12-4-19-4-22 0-11 6-17 19-17z m105 38l185 80c1 1 3 3 3 5v38c0 2-2 4-3 5l-185 80c-1 0-3-1-3-2v-47c0-2 2-4 3-4l127-50c2 0 2-1 0-2l-127-50c-1 0-3-2-3-4v-47c0-2 2-3 3-2z m310 517h-770c-29 0-52-23-52-52v-665c0-30 23-53 52-53h770c29 0 53 23 53 53v665c0 29-24 52-53 52z m0-717h-770v577h770v-577z" />
<glyph glyph-name="comment" horiz-adv-x="1000" unicode="&#xeeeb;" d="M935 736c-4 25-16 37-41 39-11 0-22 1-33 1-242 0-484 0-726 0-13 0-26-1-39-4-18-3-27-16-31-33-1-10-3-19-3-29v-491c0-8 1-16 2-23 5-29 16-40 45-40 55-1 110-1 166-2h18v-203c0-9-1-20 10-25 11-5 18 2 26 9 77 71 154 141 232 212 5 4 13 7 20 7 96 1 191 0 287 1 13 0 26 1 39 3 16 3 25 14 28 30 1 10 2 20 2 30v493c1 8 0 17-2 25z m-734-237h298v-68h-298v68z m483-206h-483v68h483v-68z m115 277h-598v67h598v-67z" />
<glyph glyph-name="compass-alt" horiz-adv-x="1000" unicode="&#xeeec;" d="M486 787c-227-6-421-189-423-434-3-242 196-440 436-440 240 0 439 196 439 435-1 242-195 446-452 439z m21-804c-208 0-373 161-374 366-1 202 162 366 365 368 203 1 368-163 369-367 1-197-165-366-360-367z m84 406c-29 6-43 21-49 50-11 57-26 112-39 168-17-55-31-110-42-165-7-31-22-47-54-53-56-11-110-25-166-38 1-1 1-2 1-4 59-14 119-29 178-42 22-5 32-17 37-37 7-32 14-63 21-94 7-29 14-57 20-85 18 62 33 123 48 184 4 17 14 27 30 31 34 8 68 15 102 23 28 7 55 14 88 22-62 14-118 29-175 40z m-90-66c-15 0-26 11-26 25-1 15 12 27 27 26 14 0 25-12 25-26 0-14-11-25-26-25z m-101-58c-7 6-10 4-14-2-14-23-28-45-45-73 22 14 39 24 57 35 29 18 29 19 2 40z m17 184c5 6 6 9-1 13-23 14-46 28-68 42l-2-2c10-17 21-34 31-51 17-28 18-28 40-2z m163-207c0 0 0-1-1-3 25-15 50-31 81-50-13 21-22 36-32 51-22 35-22 35-48 2z m37 195c12 21 25 42 38 62l-3 3c-17-10-34-20-50-31-26-16-29-10-4-36 9-8 13-8 19 2z" />
<glyph glyph-name="compass" horiz-adv-x="1000" unicode="&#xeeed;" d="M494 788c-240-3-433-200-431-438 0-243 195-438 439-438 239 1 435 197 435 437 1 245-199 441-443 439z m6-778c-189 2-339 151-340 338 0 194 156 342 340 341 189 0 334-152 339-329 5-186-142-348-339-350z m88 409c-1 5-5 10-9 12-89 43-178 85-267 128-1 0-2 0-5 1 5-13 9-25 14-36 30-82 60-163 91-244 1-4 5-9 9-11 87-42 174-84 261-125 3-1 6-2 11-5-14 37-26 71-39 105-22 59-44 117-66 175z m-157-108c-24 64-47 127-71 192 63-30 123-59 184-88-38-35-75-69-113-104z" />
<glyph glyph-name="computer" horiz-adv-x="1000" unicode="&#xeeee;" d="M890 724v1h-780v-1c-26-2-44-23-47-48v-526c0-10 2-19 6-27 10-17 25-26 45-26h282v-61h-88c-6 0-10-5-10-10v-41c0-5 4-10 10-10h385c5 0 9 5 9 10v41c0 5-4 10-9 10h-89v61h282c20 0 34 9 44 26 5 9 8 17 8 27v526c-3 25-24 46-48 48z m0-52v-522c0-3-1-5-4-5h-772c-3 0-4 2-4 5v526h780v-4z" />
<glyph glyph-name="connection" horiz-adv-x="1000" unicode="&#xeeef;" d="M885 162c-33 17-66 15-96-6-5-2-8-3-13 0-43 24-83 54-118 89-2 1-3 3-3 5 4 10 6 21 6 33 0 40-24 74-58 89-1 1-1 3-1 5 0 50 6 98 19 146 1 4 2 5 5 6l1 0c30 7 53 26 65 51l1 1c1 2 2 4 2 6l2 3 1 4 1 6 1 2c0 2 1 4 1 7l0 2c1 2 1 4 1 6 0 2 0 3 0 4v5c0 2 0 4 0 6 0 1 0 2 0 2l-1 3c-2 14-7 27-14 38l0 1c-1 1-2 2-2 3l-2 2c0 0 0 1-1 1-5 7-11 13-17 18l-1 0c-1 1-2 2-3 2-1 1-2 1-3 2l-1 1c-14 9-31 14-48 14h-4c-1 0-2 0-3 0h-1c-16-1-31-5-46-14-6-4-11-8-16-13-1-1-2-2-3-3l0 0c-18-19-27-43-25-72l0-1v0c0-5-1-7-5-10-43-24-88-42-135-55-5-1-8 0-11 4-41 52-121 47-156-10-24-39-17-90 17-121 4-4 5-7 4-12-12-48-31-93-55-136-2-4-4-5-8-5-7 0-15 0-22-2-51-10-83-56-76-108 8-59 70-97 126-77 34 12 56 37 63 73 7 37-5 69-35 94-4 3-5 5-3 10 11 43 27 85 48 125 5 9 10 17 20 13 54-3 102 44 98 99 0 4 2 7 6 9 43 24 88 43 136 56 4 1 7 1 9-1 5-6 10-11 17-15 7-6 15-11 23-14 2-2 2-4 2-7 0-45-5-89-15-133-1-5-3-10-5-13-10-1-20-4-29-8-34-15-58-49-58-89 0-12 2-24 6-34 6-17 17-31 31-42 14-11 31-19 49-21l3 0 2 0c1 0 1 0 2 0 1 0 3 0 4 0l3 0 1 0c1 0 2 0 3 0l4 0c12 2 23 5 33 10l0 0c2 1 4 2 6 4 3 2 7 4 10 6l0 1h0c3 1 5 0 8-1 43-24 82-54 117-88 3-3 4-6 2-10-13-44 1-87 38-112 49-33 118-13 141 43 20 47 1 100-45 123z" />
<glyph glyph-name="console" horiz-adv-x="1000" unicode="&#xeef0;" d="M915 718h-830c-12 0-22-10-22-23v-690c0-13 10-23 22-23h830c13 0 23 10 23 23v690c0 12-10 23-23 23z m-12-677c0-13-10-23-23-23h-760c-12 0-22 10-22 23v618c0 12 10 22 22 22h760c13 0 23-10 23-22v-618z m-720 438c42-42 84-84 128-128-42-41-84-83-126-124 8-9 16-17 22-24l150 151-149 149c-7-7-15-15-25-24z m224-282h227v33h-227v-33z" />
<glyph glyph-name="contacts" horiz-adv-x="1000" unicode="&#xeef1;" d="M612 496c-77 0-140-66-140-147 0-79 63-145 140-145 77 0 139 66 139 146 0 80-62 146-139 146z m81-217c-18-21-41-34-68-37-37-4-68 9-93 38-2 2-1 4 0 6 10 22 25 38 47 48 2 0 3 1 5 2-29 20-33 52-25 75 9 24 32 39 56 38 24-1 46-19 53-43 6-24-1-53-27-69 4-3 9-5 13-7 18-10 31-25 39-44 2-3 2-4 0-7z m-508 443v-70c20 0 39 0 57 0 55-1 92-51 79-104-9-36-40-61-76-62-20 0-40 0-60 0v-68c20 0 39 0 58 0 42-1 75-30 80-71 5-41-18-79-56-90-12-4-24-4-36-4-15-1-31 0-46 0v-59c21 0 40 1 60 0 33-1 57-17 71-48 14-30 10-60-10-86-16-22-39-31-65-31-18 0-37 0-56 0v-59s30-58 67-58h601c36 0 66 29 66 66v744c0 36-30 66-66 66h-601c-37-1-67-30-67-66z m427-549c-94 0-170 79-170 178 1 97 77 176 170 176 93 0 169-78 169-176 1-99-75-178-169-178z m-497 128c20 0 41 0 62 0 21 0 42 0 64 0 18 1 29 12 31 31 2 21-14 37-37 38-40 0-80 0-120 0-20 0-34-13-34-33 0-21 13-35 34-36z m129-223c16 0 27 11 28 28 1 15-11 30-25 31-6 1-12-1-17-1-39 0-79 0-118 0-19 0-31-12-31-30 0-17 12-28 31-29 22 0 43 0 65 0 22 1 45 0 67 1z m-132 467c22 0 43 0 65 0 22 0 44 0 66 0 17 0 30 12 30 29 0 16-13 29-30 29-44 1-87 0-131 0-19 0-31-11-31-28 0-18 12-30 31-30z" />
<glyph glyph-name="contrast" horiz-adv-x="1000" unicode="&#xeef2;" d="M890 724v1h-780v-1c-26-2-44-23-47-48v-526c0-10 2-19 6-27 10-17 25-26 45-26h282v-61h-88c-6 0-10-5-10-10v-41c0-5 4-10 10-10h385c5 0 9 5 9 10v41c0 5-4 10-9 10h-89v61h282c20 0 34 9 44 26 5 9 8 17 8 27v526c-3 25-24 46-48 48z m-780-48h780v-1l-780-526 0 1v526z" />
<glyph glyph-name="copyright" horiz-adv-x="1000" unicode="&#xeef3;" d="M500-88c-65 0-124 12-178 34-54 22-100 53-138 92-38 39-67 85-88 138-21 53-32 111-32 174 0 62 11 120 32 174s51 99 88 138c39 39 84 70 138 92 54 22 113 34 178 34s125-11 178-33c54-22 100-53 138-92 38-39 67-86 89-139 21-53 31-111 31-174 0-63-10-121-31-174-22-53-51-99-89-138-38-39-84-70-138-92-53-22-113-34-178-34z m0 88c53 0 101 9 144 27 42 18 78 42 107 74 30 31 52 68 68 111 16 43 23 89 23 138s-8 96-23 138c-16 43-38 80-68 111-29 32-65 56-107 75-43 18-90 27-144 27s-101-9-143-27c-43-19-79-43-108-75-29-31-52-68-67-111-16-42-24-88-24-138s8-95 24-138c15-43 38-80 67-111 30-32 65-56 108-74 42-18 90-27 143-27z m121 237c8-12 14-28 18-47 5-19 7-38 7-59-23-8-44-14-64-17-20-3-41-4-64-4-37 0-70 6-98 19-28 13-52 31-70 52s-33 47-43 77c-10 29-15 60-15 93 0 32 5 63 15 92 9 30 24 56 43 78 18 22 42 40 69 53 27 14 59 20 94 20 27 0 49-1 67-4 17-3 37-9 60-18 0-16-1-33-4-53s-9-37-17-53c-19 7-34 11-47 13-13 2-27 3-42 3-35 0-62-12-80-34-19-22-29-55-29-97 0-45 10-78 30-99 20-21 46-32 78-32 18 0 33 1 45 3 12 2 28 6 47 14z" />
<glyph glyph-name="credit-card" horiz-adv-x="1000" unicode="&#xeef4;" d="M938 573c0 40-33 72-73 72h-730c-40 0-72-32-72-72v-41h875v41z m-875-162v-284c0-40 32-73 72-73h730c40 0 73 33 73 73v284h-875z m268-253c0-3-2-6-5-6h-156c-3 0-5 3-5 6v50c0 3 2 6 5 6h156c3 0 5-3 5-6v-50z" />
<glyph glyph-name="crop" horiz-adv-x="1000" unicode="&#xeef5;" d="M915 191h-154c-12 0-22 10-22 23v351c0 13-11 23-23 23h-353c-12 0-23 10-23 23v154c0 12-10 22-22 22h-35c-12 0-22-10-22-22v-154c0-12-11-22-23-22h-152c-13 0-23-11-23-23v-34c0-13 10-23 23-23h152c13 0 23-10 23-23v-351c0-13 10-23 23-23h353c13 0 23-10 23-23v-153c0-13 10-23 23-23h33c12 0 22 10 22 23v153c0 13 11 23 23 23h154c12 0 22 10 22 23v33c1 13-10 23-22 23z m-279 0h-273c-12 0-23 11-23 23v272c0 13 11 23 23 23h273c13 0 23-10 23-23v-272c0-12-10-23-23-23z" />
<glyph glyph-name="crown" horiz-adv-x="1000" unicode="&#xeef6;" d="M925 505c-13 11-32 13-47 5-16-10-22-26-17-50-78-33-156-66-235-100-37 91-74 180-110 269 26 19 31 44 14 63-15 17-42 18-58 2-18-19-14-42 13-65-37-89-73-179-110-269-80 34-158 67-235 100 5 31-8 52-35 55-21 3-41-16-42-37-1-25 18-41 51-40 0-2 1-4 2-6 33-108 66-215 99-323 3-8 6-11 15-11 180 0 360 0 540 0 9 0 13 2 15 11 31 100 61 199 92 299 3 10 7 20 10 30 25-2 40 6 48 23 6 15 2 33-10 44z m-147-434h-556c-4 0-7-5-7-11v-54c0-6 3-11 7-11h556c4 0 7 5 7 11v54c0 6-3 11-7 11z" />
<glyph glyph-name="cube" horiz-adv-x="1000" unicode="&#xeef7;" d="M879 541c0 1 0 3 0 4-1 3-2 4-4 3-1 0-1-1-2-1-119-69-238-137-356-206-6-3-8-6-8-12 1-136 1-272 1-407 0-2 0-4 0-6 0-3 2-4 3-3 1 0 2 1 3 1 119 69 238 138 356 206 6 3 7 7 7 13 0 136 0 272 0 408z m-398-198c-108 62-215 124-323 187-6 3-12 6-18 10-10 6-18 9-18 7 0-2 0-3 0-4 0-137 0-274-1-411 0-7 4-10 9-13l344-199c3-1 5-3 8-4 5-3 9-2 9 1v7c0 134 0 268 0 401 0 9-2 14-10 18z m346 208c23 14 41 25 40 26-1 1-2 2-3 2-119 69-238 137-357 206-5 3-9 3-14 0-90-52-181-104-271-156-15-9-30-18-45-27-26-14-43-28-40-29 2-2 4-3 6-4 116-67 232-134 349-202 6-3 10-4 17 0 92 54 184 107 276 160 13 8 28 16 42 24z" />
<glyph glyph-name="cubes" horiz-adv-x="1000" unicode="&#xeef8;" d="M705 261c0 2-1 2-2 2 0 0-1 0-1-1-64-37-129-74-193-111-3-2-4-4-4-7 0-74 0-147 0-221 0-1 0-2 0-3 0-1 1-2 2-2 1 1 1 1 1 1 65 37 129 75 193 112 4 2 4 4 4 7 0 74 0 147 0 221 0 1 0 2 0 2z m-215-109c-59 33-117 67-175 101-4 2-7 4-10 5-6 4-10 5-10 4 0-1 0-1 0-2 0-74 0-148 0-223 0-4 2-5 5-7l186-107c1-1 3-2 5-3 2-1 4-1 4 1v3c0 73 0 146 0 218 0 5-1 7-5 10z m187 113c13 7 22 13 22 14-1 0-1 0-2 1-64 37-129 74-193 111-3 2-5 2-8 0-49-28-98-56-147-84l-24-15c-14-8-24-15-22-16 1-1 2-1 3-2 63-36 126-72 189-109 4-2 6-2 10 0 49 29 99 58 149 86 8 5 15 9 23 14z m260 383c0 1 0 1 0 2 0 1-1 2-2 2 0 0-1-1-1-1-64-37-129-74-193-111-3-2-4-4-4-7 0-74 0-147 0-221 0-1 0-2 0-3 0-1 1-2 2-2 1 1 1 1 2 1 64 37 128 75 193 112 3 1 3 3 3 7 0 73 0 147 0 221z m-215-107c-58 33-117 67-175 101-3 2-7 3-10 5-5 3-10 5-10 4 0-1 0-1 0-2 0-74 0-149 0-223 0-4 2-5 5-7l186-107c2-1 3-2 5-3 2-1 4-1 4 1v3c0 73 0 146 1 218-1 5-2 7-6 10z m187 112c13 8 23 14 22 15-1 0-1 0-1 0-65 38-129 75-194 112-3 2-5 2-8 0-49-28-98-56-146-85l-25-14c-14-8-23-15-22-16 1-1 2-1 3-2 63-36 126-73 189-109 4-2 6-2 10 0 50 29 99 57 149 86 8 4 16 9 23 13z m-436-226c0 73 0 147 0 221 0 0 0 1 0 2 0 1-1 2-2 2 0-1-1-1-1-1-65-37-129-74-193-111-3-2-4-4-4-7 0-74 0-147 0-221 0-1 0-2 0-3 0-1 1-2 2-2 0 1 1 1 1 1 65 37 129 74 193 112 3 1 4 3 4 7z m-215 114c-59 33-117 67-176 101l-9 5c-6 3-10 5-10 4 0-1 0-1 0-2 0-74 0-149 0-223 0-4 2-5 4-7l187-107c1-1 3-2 4-3 3-1 5-1 5 1v3c0 73 0 146 0 218 0 5-1 7-5 10z m187 112c13 8 22 14 22 15-1 0-1 0-2 0-64 38-129 75-193 112-3 2-5 2-8 0-49-28-98-56-147-85l-25-14c-13-8-23-15-21-16 1-1 2-1 3-2 63-36 126-73 189-109 3-2 6-2 9 0 50 29 100 57 150 86 8 4 15 9 23 13z" />
<glyph glyph-name="dashboard-web" horiz-adv-x="1000" unicode="&#xeef9;" d="M933 691c-9 20-26 28-48 28-128 0-256 0-385 0h-382c-38 0-55-18-55-56v-630c0-15 3-28 14-38 11-11 25-14 39-14h770c32 0 51 19 51 50 1 213 1 425 0 638 0 7-1 15-4 22z m-629-30c15 0 23-8 23-23 0-16-7-23-22-23-16 0-23 7-23 22-1 17 6 24 22 24z m-80 0c15 0 22-7 22-23 0-17-6-23-22-23-16 0-23 7-23 23 0 15 7 23 23 23z m-81 0c15 0 23-8 23-23 1-15-7-23-22-23-17 0-24 7-24 22 0 16 7 24 23 24z m772-625c0-24-8-31-31-31h-769c-22 0-30 8-30 30v522h829l1-521z m-444 48c34 8 49 43 34 74-1 1-1 5 0 6 13 18 26 36 39 53 1 1 4 2 5 2 14-4 27-1 40 6 1-1 2-1 4-2 17-13 34-26 51-39 2-1 2-4 2-6 0-6-1-12 0-18 2-21 18-38 39-42 20-5 42 5 52 22 12 19 11 42-3 58-2 3-2 5-1 8 18 36 36 72 54 107 2 4 3 5 8 5 27-1 51 22 51 50 0 28-24 51-51 50-21-1-37-10-45-29-8-18-6-36 6-52 2-3 3-5 1-8-18-36-36-72-54-108-1-2-4-4-6-4-9 0-18-2-27-6-2-2-4-2-6 0-17 13-33 25-50 38-4 2-5 5-4 9 8 35-25 67-59 59-34-8-50-43-34-74 1-2 1-5 0-6-13-18-26-35-39-52-1-2-4-3-6-3-7 0-14 2-21 1-27-4-45-32-40-59 6-28 34-46 60-40z m-230 127c54-18 105 2 132 31 0 1 0 1-1 1l-32 29c-20 17-41 35-61 52-2 2-4 5-4 7-10 29-19 58-28 87-4 11-8 22-11 33-44-16-82-61-82-120 0-53 36-103 87-120z m52 120c6-5 11-10 17-15 18-15 35-30 53-46 7-5 13-11 20-16 52 67 22 155-33 186-1 0-1 0-1-1-19-34-38-69-57-104-1-2 0-3 1-4z m44 116c-22 13-63 16-88 8 12-35 23-70 35-106 18 33 35 66 53 98z" />
<glyph glyph-name="dashboard" horiz-adv-x="1000" unicode="&#xeefa;" d="M716 450c5-4 12-3 16 1 13 11 26 22 38 33 5 4 5 10 0 14-118 98-311 132-477 42-88-48-152-117-193-208-24-53-37-109-37-167-1-6 4-10 10-10h50c6 0 11 4 11 10 10 143 75 253 206 317 130 64 257 48 376-32z m128-25c-4 5-10 5-13 0-12-13-24-26-35-39-4-5-4-12-1-16 22-31 39-63 51-98 12-35 18-71 19-107 1-6 5-10 11-10h51c6 0 11 4 10 10-2 97-34 183-93 260z m-51 24c-1-2-3-3-5-4-90-80-179-159-269-238-6-5-11-8-19-7-34 0-56-34-43-64 9-21 31-32 54-27 20 4 34 23 35 45 0 5 0 11 3 15 63 71 125 142 188 213 19 22 39 43 58 65l-2 2z" />
<glyph glyph-name="data" horiz-adv-x="1000" unicode="&#xeefb;" d="M786 658c-16 19-32 38-49 58-13 15-26 30-39 45-13 15-39 27-59 27h-413c-19 0-35-16-35-36v-804c0-19 16-35 35-35h548c20 0 36 16 36 35v648c0 19-11 47-24 62z m-192-209h48v-72h-48v72z m-68 136h48v-208h-48v208z m-143-11c37 1 74-37 74-73h-74v73z m0-90c24 0 47 0 71 0 1 0 2 0 4 0-5-32-21-55-50-69-28-12-63-7-86 13 19 18 37 36 55 54 1 2 4 2 6 2z m-86 39c11 29 41 52 70 52 0-26 0-52-1-77 0-2-1-4-2-6-18-17-35-35-53-53-20 19-26 56-14 84z m-6-217h418v-38h-418v38z m418-191h-418v38h418v-38z m0 81h-418v38h418l0-38z m0 181h-47v164h47v-164z" />
<glyph glyph-name="database-add" horiz-adv-x="1000" unicode="&#xeefc;" d="M472 417c199 0 360 59 360 131v108c0 73-161 132-360 132s-361-59-361-132v-108c0-72 162-131 361-131z m0-251c44 0 86 3 126 9 30 53 87 89 152 89 21 0 42-4 61-11 14 14 21 29 21 45 0 0 1 175 0 178-14-68-170-122-360-122s-347 54-361 122c0-3 0-178 0-178 0-73 162-132 361-132z m103-78c0 6 0 12 1 18-33-4-68-6-104-6-190 0-347 54-361 122v-178c0-73 162-131 361-131 71 0 138 7 194 21-54 29-91 88-91 154z m274 95c-23 23-54 38-89 39h-5c-37 0-70-15-94-39-24-24-40-57-40-94 0-19 4-37 11-53 7-16 17-30 28-42 25-24 58-39 95-39 74 0 133 60 133 134 0 37-14 70-39 94z m-31-114h-44v-43h-39v43h-43v39h43v44h39v-44h44v-39z" />
<glyph glyph-name="database-locked" horiz-adv-x="1000" unicode="&#xeefd;" d="M757 132c-9 0-18-7-19-17 0-7 0-15 0-23 0 0 0 0 0 0h38v1c0 7 0 13 0 20 0 11-8 19-19 19z m92 48c-23 23-53 37-87 39h-5c-36 0-68-15-91-39-24-23-38-55-38-91 0-18 3-36 10-52 7-15 16-28 28-40 23-23 55-38 91-38 72 0 130 59 130 130 0 36-15 68-38 91z m-46-146c0-5-2-6-6-6h-80c-4 0-6 1-6 6v52c0 3 2 5 6 5h4v23c0 18 14 33 31 35 19 3 36-10 40-28 0-2 0-4 0-6v-24h5c4 0 6-2 6-6l0-51z m-329 383c199 0 360 59 360 131v108c0 73-161 132-360 132s-360-59-360-132v-108c0-72 161-131 360-131z m0-251c44 0 87 3 126 9 30 53 87 89 152 89 22 0 42-4 61-11 14 14 21 29 21 45 0 0 1 175 0 178-13-68-170-122-360-122s-347 54-360 122c-1-3 0-178 0-178 0-73 161-132 360-132z m103-78c0 6 0 12 1 18-33-4-68-6-104-6-190 0-347 54-360 122v-178c0-73 161-131 360-131 72 0 139 7 195 21-55 29-92 88-92 154z" />
<glyph glyph-name="database-remove" horiz-adv-x="1000" unicode="&#xeefe;" d="M849 180c-23 23-53 37-87 38h-5c-36 0-68-14-91-38-24-23-39-55-39-91 0-19 4-36 11-52 7-15 16-29 28-40 23-23 55-38 91-38 72 0 130 58 130 130 0 36-15 68-38 91z m-32-108h-120v34h120v-34z m-343 345c199 0 360 59 360 131v108c0 73-161 132-360 132s-360-59-360-132v-108c0-72 161-131 360-131z m0-251c44 0 87 3 126 9 30 53 87 89 152 89 22 0 42-4 61-11 14 14 21 29 21 45 0 0 1 175 0 178-13-68-170-122-360-122s-347 54-360 122c-1-3 0-178 0-178 0-73 161-132 360-132z m103-78c0 6 0 12 1 18-33-4-68-6-104-6-190 0-347 54-361 122v-178c0-73 162-131 361-131 72 0 138 7 194 21-54 29-91 88-91 154z" />
<glyph glyph-name="database" horiz-adv-x="1000" unicode="&#xeeff;" d="M500 417c199 0 361 59 361 131v108c0 73-162 132-361 132s-360-59-360-132v-108c0-72 161-131 360-131z m360 59c-13-68-170-122-360-122s-347 54-360 122c-1-3 0-178 0-178 0-73 161-132 360-132s361 59 361 132c0 0 0 174-1 178z m-360-376c-190 0-347 54-360 122v-178c0-73 161-132 360-132s361 59 361 132l-1 178c-13-68-170-122-360-122z" />
<glyph glyph-name="delete" horiz-adv-x="1000" unicode="&#xef00;" d="M938 625c0 21-10 31-32 31l-541 0c-11 0-19-3-27-11-39-40-77-80-116-120-50-52-101-104-151-156-11-12-11-27 0-39 46-47 91-93 137-141 43-44 86-89 130-134 7-7 15-11 26-11l544 0c20 0 30 10 30 30v276c0 92 0 183 0 275z m-54-528c-3 0-5-1-8-1-166 0-331 0-497 1-4 0-10 2-14 6-68 70-137 141-205 212-12 11-23 23-34 35 2 2 3 4 5 5 78 81 155 161 233 241 5 5 10 8 18 8 163-1 327 0 490 0h12l0-507z m-145 410c-34-35-69-70-104-106-4-5-12-5-16 0-35 35-70 70-104 106-5 4-12 4-17-1-8-8-16-17-25-26-4-4-4-12 0-16 34-35 69-70 104-106 4-4 4-12 0-16-35-36-70-71-104-106-5-5-5-12 0-17 8-8 17-17 25-26 5-4 12-4 17 0l104 106c4 4 12 4 16 0 35-35 69-70 104-106 4-4 12-4 16 0 9 9 17 18 26 26 4 5 4 12 0 17-34 35-69 70-104 105-4 5-4 13 0 17 35 36 70 71 104 106 5 5 4 12 0 17l-26 26c-4 4-11 4-16 0z" />
<glyph glyph-name="diamond" horiz-adv-x="1000" unicode="&#xef01;" d="M349 412c49-131 98-260 147-392 2-5 6-5 8 0 49 132 98 262 147 392 2 5-1 9-6 9h-290c-5 0-8-4-6-9z m-279 2c132-137 263-272 395-408 4-4 7-7 8-6 0 0-1 5-3 10l-152 402c-2 5-8 9-14 9h-231c-6 0-7-3-3-7z m611-4c-43-114-86-228-129-343-7-19-14-38-22-58-2-5-3-10-3-10 1 0 4 3 8 7 132 136 263 271 396 408 4 4 4 8 0 8h-7c-75 0-151-1-226 0-10 0-14-4-17-12z m-38 50c-46 69-91 137-137 206-3 5-9 5-12 0-46-69-91-138-137-206-3-5-1-9 5-9h276c6 0 8 4 5 9z m-434 218c-49-74-97-146-145-219-3-4-1-8 5-8h224c6 0 9 4 7 9-27 73-54 144-82 216-2 6-6 6-9 2z m727-219c-49 74-96 145-145 219-3 4-7 4-9-2-28-72-55-144-82-216-2-5 1-9 7-9h224c6 0 8 4 5 8z m-186 241h-222c-6 0-8-3-5-8 48-73 95-144 143-216 4-5 8-5 10 1 27 72 54 143 80 214 2 5-1 9-6 9z m-278 0h-222c-5 0-8-4-6-9 26-71 53-142 80-214 2-6 6-6 10-1 48 72 95 143 143 216 3 4 1 8-5 8z" />
<glyph glyph-name="dice-multiple" horiz-adv-x="1000" unicode="&#xef02;" d="M476 432c0 96-2 193 0 289 1 31-9 53-35 67h-325c-20-15-34-32-34-60 1-99 0-198 1-297 0-37 18-55 53-55 95 0 191 0 286 0 36 0 54 18 54 56z m-95 297c22 1 39-17 39-40 1-23-15-40-37-40-21 0-38 17-39 39 0 21 17 40 37 41z m-167-258c0-21-18-38-39-38-20 1-37 19-37 41 0 21 20 40 41 40 19-1 36-21 35-43z m-37 178c-21 0-39 17-39 38-1 22 17 42 39 42 20 0 37-18 37-40 1-22-16-40-37-40z m102-108c-20 0-38 19-38 39-1 22 19 42 40 41 20 0 36-18 36-41 0-22-16-39-38-39z m141-71c0-21-18-37-39-37-20 1-37 20-37 42 1 20 20 39 40 39 20-1 37-21 36-44z m478-246c-68 71-135 141-203 212-22 23-50 24-73 0-69-72-138-145-207-218-9-10-14-21-13-39-2-12 6-24 16-35l112-117c30-31 60-63 91-95 26-27 51-26 77 1 67 70 133 139 200 208 26 27 26 56 0 83z m-384-81c-22 0-39 18-39 43 1 20 18 38 38 38 21 0 39-18 39-41 0-21-17-40-38-40z m145 0c-22 0-39 19-38 42 0 22 17 39 38 39 22 0 38-17 39-40 0-23-17-41-39-41z m-38 195c0 21 18 38 39 38 22 0 38-18 38-42-1-21-19-39-39-39-21 1-39 21-38 43z m77-308c-1-22-18-39-39-39-22 0-38 18-38 41 0 21 20 40 40 39 21-1 37-20 37-41z m108 113c-22 0-40 18-39 41 0 22 17 40 37 40 22 0 39-18 39-41 0-22-16-40-37-40z" />
<glyph glyph-name="dice" horiz-adv-x="1000" unicode="&#xef03;" d="M868 626c-175 53-349 105-523 157-58 17-108-17-121-65-25-88-52-175-78-263s-53-174-79-262c-16-54 11-103 65-119 175-52 350-105 525-157 54-16 103 11 119 65 53 175 105 349 157 524 16 54-11 104-65 120z m-521-463c-14-48-66-76-115-61-49 15-76 66-61 116 14 47 66 75 115 61 48-14 76-66 61-116z m64 213c-15-48-66-76-115-62-49 15-76 67-61 116 14 49 65 76 115 61 49-15 76-66 61-115z m63 212c-14-48-65-75-114-61-49 15-77 66-62 116 15 48 66 76 115 61 49-15 76-66 61-116z m228-530c-15-49-65-77-115-62-49 15-76 65-62 114 15 50 67 78 116 63 48-15 76-66 61-115z m64 213c-15-49-66-77-115-63-49 15-77 66-62 116 15 49 66 76 114 61 50-15 77-65 63-114z m63 213c-14-50-65-77-114-63-49 15-77 66-63 115 15 49 66 77 115 62 49-14 77-65 62-114z" />
<glyph glyph-name="disc" horiz-adv-x="1000" unicode="&#xef04;" d="M500 457c-59 0-107-48-107-107s48-107 107-107c59 0 107 48 107 107s-48 107-107 107z m0-162c-30 0-55 25-55 55 0 30 25 55 55 55 30 0 55-25 55-55 0-30-25-55-55-55z m315 358c-25 26-53 49-83 68-67 42-147 67-232 67-242 0-437-196-437-438s195-438 437-438 438 196 438 438c0 118-47 225-123 303z m-315-454c-83 0-151 68-151 151s68 151 151 151 151-68 151-151-68-151-151-151z" />
<glyph glyph-name="diskette" horiz-adv-x="1000" unicode="&#xef05;" d="M930 629c-50 51-101 102-151 152-3 3-5 6-8 6-8 0-16 0-24 0-9 0-17-7-17-16v-268c0-9-7-16-16-16h-428c-9 0-17 7-17 16v268c0 9-2 16-5 16-2 0-4 0-6 0-45 0-90 1-135 0-36 0-58-22-58-58 0-253 0-505 0-758 0-36 22-58 58-59 251 0 503 0 754 0 36 0 58 23 58 58 1 215 1 430 0 645 0 5-2 11-5 14z m-104-634h-652v382h653v-382z m-166 723h-75c-9 0-16-8-16-17v-157c0-9 7-16 16-16h75c9 0 16 7 16 16v157c0 9-7 17-16 17z m96-396h-511c-9 0-17-8-17-17v-20c0-9 8-16 17-16h511c9 0 16 7 16 16v20c0 9-8 17-16 17z m0-108h-511c-9 0-17-7-17-16v-21c0-9 8-16 17-16h511c9 0 16 7 16 16v21c0 9-8 16-16 16z m-511-164h511c9 0 16 8 16 17v20c0 9-7 16-16 16h-511c-9 0-16-7-16-16v-20c0-10 7-17 16-17z" />
<glyph glyph-name="document-folder" horiz-adv-x="1000" unicode="&#xef06;" d="M740 320v33h159v61c0 27-21 49-47 49h-112v119c0 16-8 37-18 49-13 15-25 31-38 46-10 12-20 23-31 35-9 12-30 21-45 21h-321c-15 0-27-12-27-28v-174h-112c-27 0-48-22-48-49v-129h160v-33h-197l37-308c0-25 21-46 48-46h704c26 0 47 21 47 46l39 308h-198v0z m-451 33v314c0 13 11 24 25 24h281c13 0 31-8 40-18 8-11 17-21 26-32 12-13 23-26 34-40 9-10 16-29 16-43v-238h-422v33z m359 193h-301c-6 0-11-4-11-10v-11c0-5 5-10 11-10h301c6 0 11 5 11 10v11c0 6-5 10-11 10z m0-68h-301c-6 0-11-4-11-10v-11c0-5 5-10 11-10h301c6 0 11 5 11 10v11c0 6-5 10-11 10z m0-74h-301c-6 0-11-5-11-10v-11c0-6 5-10 11-10h301c6 0 11 4 11 10v11c0 5-5 10-11 10z" />
<glyph glyph-name="download-alt" horiz-adv-x="1000" unicode="&#xef07;" d="M635 109c-9-9-25-9-35 0l-295 287c-9 9-9 24 0 34l59 57c10 9 25 9 35 0l150-146v375c0 14 11 24 24 24h99c14 0 25-10 25-24v-365l140 136c9 9 25 9 35 0l58-57c10-10 10-25 0-34l-295-287z m-572 51v-201h874v201h-188l-112-109c-10-11-28-11-38 0l-113 109h-423z m201-101c0 20 16 36 37 36s37-16 37-36-17-36-37-36-37 16-37 36z m-132 0c0 20 16 36 37 36 20 0 37-16 37-36s-17-36-37-36c-21 0-37 16-37 36z" />
<glyph glyph-name="download" horiz-adv-x="1000" unicode="&#xef08;" d="M483 131c9-10 25-10 35 0l294 285c9 10 9 25 0 34l-59 57c-9 10-25 10-35 0l-139-135v364c0 13-11 24-25 24h-98c-14 0-25-11-25-24v-374l-149 145c-10 10-25 10-35 0l-59-57c-9-9-9-24 0-34l295-285z m333 137v-206h-632v206h-121v-267c0-34 27-61 60-61h754c33 0 60 27 60 61v267h-121z" />
<glyph glyph-name="downloaded" horiz-adv-x="1000" unicode="&#xef09;" d="M861 405c-20 17-28 34-32 60-12 89-63 151-145 183-86 32-170 23-242-38-15-14-30-21-48-23-34 42-86 69-144 69-104 0-187-84-187-187 0-46 16-87 43-120-31-52-37-113-16-174 30-87 107-141 204-141 71 0 143 0 214 0 73 0 146 0 219 0 90 1 168 55 198 139 30 83 6 175-64 232z m-776 64c0 91 74 164 165 164 51 0 97-23 127-60 7-9 13-18 19-29 7-15 13-32 16-49 1-9 2-17 2-26 0-91-74-164-164-164-29 0-57 7-80 20-10 6-19 12-28 20-7 6-13 12-19 19-23 28-38 65-38 105z m814-279c-23-76-91-126-173-126-72 0-143 0-215 0-73 0-146 0-219 0-84 0-153 50-176 127-15 48-10 95 12 136 9-8 20-15 31-22-15-28-18-61-9-96 17-66 71-107 145-107 140 0 281 0 422 0 76 0 133 41 149 108 17 66-14 129-81 165-9 6-19 20-19 30 2 89-38 156-111 182-82 28-155 2-209-76-3-4-6-8-11-13l-1 0c-3 20-9 39-18 57 11 2 20 8 31 19 64 65 144 77 226 46 79-31 125-92 129-179 0-23 9-36 27-49 67-46 94-126 70-202z m-696 176c2-2 6-2 8 0 48 44 95 88 143 132 2 2 2 6 0 8-9 11-19 22-28 33-2 2-6 2-8 0-34-33-68-65-102-97-2-2-6-2-8 0-12 13-24 25-36 38-2 2-6 2-8 0-10-9-21-18-32-28-2-2-2-5 0-7 24-27 47-53 71-79z" />
<glyph glyph-name="drag" horiz-adv-x="1000" unicode="&#xef0a;" d="M954 359l-176 176c-5 6-15 6-20 0l-35-35c-6-6-6-15 0-21l83-83h-217c-10 22-28 39-50 49v196l89-89c6-6 15-6 21 0l35 35c5 6 5 15 0 21l-176 175c-6 6-15 6-21 0l-175-176c-6-5-6-15 0-20l35-35c5-6 15-6 20 0l83 83v-193c-19-10-34-26-44-46h-212l83 83c6 6 6 15 0 21l-34 35c-6 6-15 6-21 0l-176-176c-6-6-6-15 0-21l176-175c6-6 15-6 21 0l35 35c5 6 5 15 0 21l-90 89h219c10-19 25-35 44-45v-198l-84 83c-5 6-15 6-20 0l-35-35c-6-5-6-15 0-20l175-176c6-6 15-6 21 0l176 176c6 5 6 15 0 20l-35 35c-6 6-15 6-21 0l-89-89v201c21 10 39 27 49 48h224l-89-89c-6-6-6-16 0-21l35-35c6-6 15-6 21 0l175 175c6 6 6 15 0 21z" />
<glyph glyph-name="drag1" horiz-adv-x="1000" unicode="&#xef0b;" d="M930 370l-141 141c-11 10-19 7-19-8v-145h-162c-3 54-46 97-101 101v160h146c14 0 18 9 7 19l-141 142c-10 10-27 10-38 0l-141-142c-11-10-7-19 8-19h145v-160c-54-4-98-47-101-101h-162v145c0 15-8 18-19 8l-141-141c-11-11-11-28 0-38l141-142c11-10 19-7 19 8v145h162c3-54 46-97 101-101v-161h-146c-14 0-18-9-7-19l141-142c10-10 27-10 38 0l141 142c11 10 7 19-8 19h-145v161c55 4 98 47 101 101h162v-145c0-15 8-18 19-8l141 141c11 11 11 28 0 39z" />
<glyph glyph-name="drag2" horiz-adv-x="1000" unicode="&#xef0c;" d="M382 581l105 105c5 5 13 5 18 0l105-105c5-5 14-5 18 0l31 31c5 5 5 13 0 18l-154 154c-5 5-13 5-18 0l-154-155c-5-5-5-13 0-18l31-30c5-5 13-5 18 0z m552-224l-155 154c-5 5-13 5-18 0l-31-31c-5-5-5-13 0-18l106-105c5-5 5-13 0-18l-105-106c-5-5-5-13 0-18l31-30c5-5 13-5 18 0l154 154c5 5 5 13 0 18z m-770-14c-5 5-5 13 0 18l105 106c5 5 5 13 0 18l-31 31c-5 5-13 5-18 0l-154-155c-5-5-5-13 0-18l155-154c5-5 13-5 18 0l31 31c5 5 5 13 0 18l-106 105z m472-223c-5 5-13 5-18 0l-105-106c-5-5-13-5-18 0l-105 105c-5 5-14 5-19 0l-30-31c-5-5-5-13 0-18l154-154c5-5 14-5 18 0l154 155c5 5 5 13 0 18l-31 31z" />
<glyph glyph-name="drag3" horiz-adv-x="1000" unicode="&#xef0d;" d="M761 521l-12-13 155-151h-307c-2 24-12 45-28 62-17 16-39 26-62 27v308l151-155 13 12-171 177-171-177 13-12 151 155v-308c-47-4-84-42-87-88h-310l155 150-12 13-176-171 176-171 12 13-155 151h310c3-47 40-84 87-88v-309l-151 155-13-12 169-175 2-2 171 177-13 12-151-155v308c24 2 45 11 62 28 16 16 26 38 28 61h307l-155-151 12-13 177 171-177 171z m-260-251c-44 0-80 36-80 80 0 20 8 40 22 55 14 14 32 23 52 25h12c42-3 74-38 74-80 0-44-35-80-80-80z" />
<glyph glyph-name="earth" horiz-adv-x="1000" unicode="&#xef0e;" d="M492 575l1-2 2 0h2c4 11-6 11-14 13l-4-1 1-3 12-7z m98-15l2 0c4 2 9-3 11 4-6 0-9 1-14 0 0 0 0-4 1-4z m-37 4l6 0c-1 5-13 8-13 1-2-1 4-1 7-1z m-121 97c-4-5-4 3-7 1l-2-1c-5-7-19-8-17-20 12 1 19 10 26 20z m42-63c-9 4-9-5-10-12l3-3c7 1 11 10 7 15z m-37 68c0-1-1-3-2-5 1 1 4 0 4-2l-11-8c2 0 4 0 2-2l-7-3h7c-1-3-4-3-6-4-3-1-5-2-4-6 2 1 4 2 7 3 7 2 15 1 22 5l-4 2c4 1 7 3 5 8l-3-2c3 7-3 16 3 20l2 3c-2 0-5 0-7 0l5 3c-8 0-12-8-18-12 1-3 5 2 5 0z m-4-7c1 1 1 1 2 2-1 0-1-1-2-2z m397-200l-4 1-1-2-1-6 1-2 0 0 2 1 2 1 1-2 2-5 3-6 1 0-1 9h0l1 0 1 0 0 2-1 5-4 11-1 1 0-3 0-3 0-2h-1z m-2-61l3-1 3 1 1 3 1 4-1 1c-3-1-7-2-10-3l-3-3 0-5v-6l-1-6-2-6 0-5 1-5 1-5-1-6 1-4 2 0 1 5-1 11 1 3 2-3 0-5 2-2 3 3 0 6-3 7 0 2 1 2 3 6-1 3-2-2-2-3-2 2-1 5 2 5 2 1z m5-56l-2 0-6-3-4 1-2-2 0-4 1-2 6 2 7 6 0 2z m-12 5l-8 0-3 0-3-3 3-4 6-1 2 1 3 5c0 0 0 1 0 2z m20 72l-1 3 0-1 0-4v-5l0-8 0-5 0-4 1-1 0 1 0 2 0 2 0 4 1 2 1 2 0 3-1 5-1 4z m-6-82l-4-5-2-3-1-5 1-3 2 1 4 7 8 10h-4l-4-2z m20 54l-1-1 0-4-1-6-1-2 0 2-1 5 1 7h0l-1 4-1 2-1 0-1-1-2 0-1 0 0-3 0-2 1-5 0 0 0-1 1 0 0 0 0-1 0-1 1-1 2 0 0 0 0-2-1-1 0 0-1-1v-3l0-1v-1l0-3v-2l1 0 0 1 0 3 1 1 0 1 0 0 1-1 0-1 0-3v-1l1 0 1-2 0 0 0 0v-1l0 0h0v-1l0-1-1-7 0-4 0-3 0-1 0-1v0l0-1-1-1 0 0-1-2 0-4 0-2 0 0 1 2 0 1 0 0v-1l-1-4 0-2 0 0 0 0c3 17 5 33 6 50l-1 7z m-46 109l2-7 0-6 2-3 1-3 1 1 0 6 0 2 3 0 3-2 1 3-2 5-3 0-4 3-2 7-2 9-3 6-3 4-2 1 0-2 1-3 1-3 1-6 1-6 4-6z m11-19l-1-1v-1l1-5 1-1 1 1 1 0 0 1 0 2-1 1-1 3-1 0z m5 0l2-10 1-2 1 1-1 3 0 2-1 3 0 2 0 1 0 2-2 2-1 1h-1l0-2 1-2 1-1z m-17-112l4 3 1 7v5l1 3 1 4 1 3 1 6 2 4 1 4-1 3-3 6-2 3 1 7 2 5-1 5-8 7-3-3-1-10 0-1c2-20 2-40 2-60l2-1z m-75-109l-3 6-6 1-4-3-2-4-15-20-17-9-3-3-2-3-1-4 1-22-8-20 0-4-1-7 1-3 6-7 9-2 10 7 5 16 21 43 6 27 1 3 1 3 1 0 0 5 0-1 0 1z m-184 442h5-5z m-49 86c-242 0-437-196-437-438s195-438 437-438 438 196 438 438-196 438-438 438z m0-798c-76 0-147 24-205 65 0 0 0 0 0 0 0 0 0 0 0 0 0 0 1 0 1 0 0 0-1 1-1 1-1 1-2 1-3 2 0 0-1 0-2 1 0 0-1 0-2 1-19 14-37 29-53 47 0 0 0 0-1 1 0 1-1 2-2 2l0 0-6 7c1 0 1 1 1 2-1 1-2 3-3 5 1 0 5 0 6 4 2 10-3 17-7 25 2 0 4-1 6-3 3 5 4 10 5 16 0 2 1 5 1 8-1 15-13 29-10 43 6 20 17 39 21 60 0 2 2 4 3 6 2 4 4 8 4 13 1 2 2 7 1 10 0 3-1 7-1 8-1 1-2 3-2 4-1 1-6 5-11 8-5 4-10 6-10 6s0 1 0 1 0 0 0 0c0 1-1 1-1 2 0 0 0 0-1 0h0c0 0-1 0-1 1 0 0-1 0-1 0 0 0-1 0-1 1-1 0-2 0-2 0-1 1-1 1-1 1 0 0-1 0-1 0h-6c-3 0-5 0-6 0 0-1 0-1 0-2 0-1-1-2-1-2 0 0-1 0-1 0 0 0-1 0-1 0 2 9-5 19-14 16v-5c-7 1 2 8-4 10-7 2-3-7-9-9 7 16 6 29-3 43-6 12-20 17-20 33-1 2-2 4-2 4-1 0-2 0-3-1-1-1-2-2-2-2 0 0 0 1 0 1 0 1 0 3 0 6 0 0 0 1 0 1 37 160 180 279 351 279 19 0 37-2 55-5-3 0-6-1-9-3-1 0-3-1-4-1-1-1-2-1-3-1 3-1 6 1 8 2-1 0-1 0-2 0l1 0h1l1 0 0 0c2 1 4 1 7 2 1 0 3-1 5-1-2 0-3-1-4-2-3-1-5-2-8-4h5l-3-3h1c-5-2-8-2-13-2l10 3c-15 0-29-3-44-7-3-1-5-2-7-3-3-1-5-2-8-4-6-3-16-8-13-11 4-4 7-5 11-6 1-1 3-1 5-3 1-2 3-3 5-5 10-2 19 10 10 19 3 1 5 4 7 6 2 3 5 5 8 6-5-2-5-9-3-11 3-2 7-1 11 1 4 2 9 4 13 3-1-2-4-2-6-3-3-1-5-2-8-2-5 0-7-7-3-11-2 2-5 2-7 2-2-17-22-19-34-12 2 0 5-2 7 2 0 3-2 3-5 1v6c-7 1-7-7-7-12l-7 1c-14-10-27-15-42-20-3-1-6-3-9-4 8-3 8-18 0-17-22 7-48 12-52-15 0-4-5-9-1-12 13-10 32-10 48-4 5 2 8 11 14 12 3 1 6 3 8 4 2 2 4 4 6 7 3 2 6 4 9 4 4 1 8 1 12 2 2 0 5 0 8 1 11-11 30-24 37-39 1 5 6 12 13 5-7 12-32 23-34 40 17-12 34-20 46-41 2-1 7-3 11-1 5 3 3 6 2 8-2 3-4 5-1 9 2 3 3 2 5 0 11-24 43-12 55-23 17-13-10-30-31-27-12 3-22 5-31 9-3 0-5 1-7 1-2 1-5 0-6 0-2-1-3-3-4-4s-1-4-1-5-1-2-2-3c-1-1-4 0-7 1s-6 3-7 3c0 0-4 2-7 4-2 1-4 2-6 2-12 1-26 9-19 23-11 4-23 5-35 4-3-1-6-1-9-2-16-5-31-5-48-5-12 0-21-14-26-25-2-2-3-4-5-6-5-6-13-12-20-15-4-2-7-4-9-6-22-16-29-44-36-71 0-1-1-3-1-3-1-1-1-4-1-5 1-2 0-5 0-7 0-2 0-4-1-5 0-1 1-2 1-3s2-1 2-1c3-2 5-5 6-7 2-3 3-6 5-9 13-44 62-41 97-27l9 2c2 0 5 1 7 2 6-1 12-2 12-3 0-1 0-2 1-2 0-1 1-1 1-2 0 0 1-1 1-1 0-1 1-1 1-2 0 0 1-1 2-2 1-1 5-1 10-1 7 0 10-3 13-8 7-16-5-33 10-44 1-1 2-3 4-5 2-3 4-6 6-9 4-7 8-16 8-22s3-10 4-12c1-2 1-6 0-9 0-2-1-4-1-6-8-11-13-25-12-37 7-20 21-39 25-60v-3c1-1 2-3 2-4 1-1 2-2 2-2 1 0 1-1 1-1 1 0 1-1 1-1 0 0 1-2 3-4 1-2 3-6 4-7 2-2 3-6 4-8 1-2 1-5 0-5s0-2 0-2c-1-1 0-2 0-3 0-1 1-3 3-4 1-2 3-3 3-4 1 0 4-1 6-1 3 0 5 0 6 0 1 0 3 1 3 2 1 0 2 2 3 2 0 1 9 2 18 2l28 14c4 5 9 10 10 12 0 2 4 5 6 7 3 2 6 6 7 10 0 3 2 6 3 8 4 5 12 5 12 10 4 18 11 34 23 50 2 3 3 5 5 8 9 16 14 34 13 53-1 2-1 4-2 6-10 36 20 59 54 74 1 2 2 4 3 6 3 8 6 15 8 23 1 2 2 5 3 7 5 5 3 12 3 17-10-5-21-3-30-5-3 0-5-1-7-1-2 1-4 1-4 2-1 0-6 3-11 5-5 2-6 5-9 7-2 1-5 8-7 10-2 1-5 6-6 7-6 9-12 16-17 26-7 11-15 21-21 33-2 2-3 4-5 7-2 2-4 4-5 6-5 4-6 6-9 9-2 1-1 3 1 3 10 6 7-10 15-9 2-2 4-4 6-6 2-2 4-4 6-6 2-3 4-5 7-8 9-12 17-24 26-35 1-2 3-4 4-6s3-5 4-8c6-31 40-15 59-9 10 5 22 11 23 23 6 23-13 37-29 51-1-14-17-14-22-4-1 2-2 4-3 6l-2-6c-3 9-10 18-15 24 8 0 15-5 24-9l9-4c17-7 34-14 55-12 5 1 7-3 9-8 0-2 1-5 1-8 1-3 1-6 1-8 2 2 3 5 5 8 1 3 3 6 4 9 6 17 5 37 0 55 42-59 67-131 67-209 0-199-161-360-360-360z m51 714c-1-1-2-1-3-1 1 0 2 1 3 1z m-4-2h1-1z" />
<glyph glyph-name="ebook" horiz-adv-x="1000" unicode="&#xef0f;" d="M794 788h-588c-19 0-34-16-34-36v-804c0-20 15-35 34-35h588c19 0 34 15 34 35v804c0 20-15 36-34 36z m-295-856c-11 0-19 8-19 19s8 20 19 20 19-9 19-20-8-19-19-19z m262 55h-527v726h296v-221c0-4 2-5 5-2l79 81c3 3 7 3 10 0l79-81c3-3 5-2 5 2v221h53l0-726z m-57 393h-408c-3 0-5-3-5-6v-33c0-3 2-5 5-5h408c3 0 5 2 5 5v33c0 3-2 6-5 6z m0-83h-408c-3 0-5-2-5-5v-33c0-4 2-6 5-6h408c3 0 5 2 5 6v33c0 3-2 5-5 5z m0-85h-408c-3 0-5-3-5-6v-33c0-3 2-5 5-5h408c3 0 5 2 5 5v33c0 3-2 6-5 6z m0-83h-408c-3 0-5-2-5-5v-33c0-3 2-6 5-6h408c3 0 5 3 5 6v33c0 3-2 5-5 5z" />
<glyph glyph-name="edit" horiz-adv-x="1000" unicode="&#xef10;" d="M934 468c-1-1-2-2-3-2-44-45-88-89-132-134-4-4-6-11-6-17-1-81-1-161-1-241v-8c0-4-6-7-14-7h-554c-8 0-15 6-15 14v555c0 8 4 14 8 14h8c80 0 159 0 239 1 7 0 16 3 21 8 43 42 84 84 126 126 2 2 3 3 5 5 2 3-2 5-10 5h-529c-8 0-14-6-14-14v-846c0-8 6-14 14-14h846c8 0 15 6 15 14v529c0 8-2 14-4 12z m-597-105v-162c0-8 7-14 15-14h161c8 0 19 4 24 10 129 129 259 259 388 388 6 6 6 15 0 20l-169 170c-6 6-15 6-21 0-129-129-259-259-388-388-5-5-10-16-10-24z" />
<glyph glyph-name="eject" horiz-adv-x="1000" unicode="&#xef11;" d="M848 788h-696c-49 0-89-41-89-90v-696c0-49 40-90 89-90h696c49 0 90 41 90 90v696c0 49-41 90-90 90z m-144-642h-408v68h408v-68z m-403 145l202 263 201-263h-403z" />
<glyph glyph-name="email" horiz-adv-x="1000" unicode="&#xef12;" d="M520 496c-6-1-11-3-16-6-5-3-9-7-12-13s-5-10-6-17c-1-6-2-13-1-20 1-8 3-14 8-18 4-3 9-5 15-4 4 0 7 1 10 1s6 2 9 4l6 73c-3 0-5 0-7 0-1 0-3 0-6 0z m-451 62c139-139 278-277 416-416 12-12 17-11 29 0l393 394c10 9 23 17 28 29 5 12 1 27 1 41 1 28-13 41-41 41h-792c-27 0-40-14-40-40 0-11 0-22 0-33-1-7 2-11 6-16z m318-81c5 19 13 35 24 51 12 15 27 28 46 39 20 11 43 18 70 21 15 1 29 0 42-2 14-3 26-8 36-15 11-7 19-17 26-28 7-12 11-26 13-43 1-12 0-24-2-36-3-12-8-23-14-33-6-10-14-18-24-25-9-7-20-11-33-12-14-2-25 1-33 8-5-4-11-7-17-10-7-3-14-4-24-5-6-1-12-1-18 1-5 1-10 3-15 7-4 4-8 8-11 14-3 6-5 13-6 21-1 13 0 25 4 37 3 11 8 21 15 30 6 8 15 15 24 21 10 5 20 8 31 10 9 0 18 1 26 0 9 0 17-2 24-4l-9-100c2-1 6-1 10-1 7 1 13 3 19 8 5 5 9 11 12 18 3 7 5 15 6 23 2 9 2 17 1 25-2 22-11 38-25 49-15 10-34 14-59 12-19-2-35-7-50-14-14-8-25-18-34-30s-16-25-20-40c-4-15-5-30-4-45 1-14 5-25 10-35 5-9 11-17 19-22 8-6 17-10 26-12 10-2 21-2 31-1 10 1 20 2 28 4 8 2 16 5 23 9 2-5 4-9 6-13 2-5 4-9 5-13-3-2-7-4-12-6-5-2-10-4-15-5-6-2-12-3-18-4-6-1-12-2-18-2-15-2-30-1-43 2-14 3-26 8-37 16-11 8-20 18-27 31-7 13-12 28-13 47-2 17 0 34 4 52z m352-186c-2 2-5 4-9 8-2-3-4-6-6-8-60-60-120-120-180-180-28-28-61-28-88-1-60 60-120 120-180 180-3 3-5 6-7 9-3-2-4-3-5-4-65-65-131-131-196-196-6-6-6-12-4-19 4-18 18-27 38-27h794c3 0 6 0 8 0 13 2 23 8 29 20 5 12 6 18-5 30-63 62-126 125-189 188z m-676-133l170 170c-56 58-113 115-170 172v-342z m873 1v341l-170-170 170-171z" />
<glyph glyph-name="envelope-open" horiz-adv-x="1000" unicode="&#xef13;" d="M523 181c-13-9-33-9-45 0l-393 280c-12 8-22 3-22-12v-448c0-16 12-28 27-28h820c15 0 28 12 28 28v448c0 15-11 20-23 12l-392-280z m-38 49c5-3 10-5 15-5s11 2 15 5l330 235c6 5 11 13 11 21v215c0 15-12 26-26 26h-660c-14 0-25-11-25-26v-215c0-9 4-17 10-21l330-235z m-186 391h386c16 0 28-13 28-28 0-16-12-28-28-28h-386c-16 0-28 12-28 28 0 15 12 28 28 28z m0-98h386c16 0 28-13 28-28s-12-28-28-28h-386c-16 0-28 12-28 28 0 15 12 28 28 28z" />
<glyph glyph-name="envelope" horiz-adv-x="1000" unicode="&#xef14;" d="M493 268c-118 58-337 166-408 200-12 6-22-1-22-14v-396c0-14 11-25 25-25h824c14 0 25 11 25 24v396c0 14-10 20-22 14-70-34-287-141-403-199-7-3-12-3-19 0z m-314 230c105-52 210-103 315-154 4-2 11-3 15-1 140 69 281 139 422 208 5 2 7 5 7 11-1 21 0 57 0 81 0 14-11 25-25 25h-826c-13 0-24-11-24-25 0-24 0-61 0-82 0-3 4-8 7-10 36-18 72-35 109-53z" />
<glyph glyph-name="eraser" horiz-adv-x="1000" unicode="&#xef15;" d="M903 374c47 48 45 120-2 168-54 54-108 107-161 161-50 50-124 50-174 0-155-155-310-311-466-466-50-50-50-124 0-174 29-30 59-60 89-89 6-6 17-10 26-10 43-1 87-1 131-1 43 0 85 1 128 0 14 0 24 4 34 14 72 73 145 145 217 218 60 59 120 118 178 179z m-298-245l-58-58c-20-21-41-41-62-62-4-4-11-7-17-7-81-1-163 0-244 0-5 0-12 3-16 7-28 27-55 54-83 82-33 35-33 83 1 118 56 56 156 156 200 199 11 11 29 11 41 0l238-238c11-12 11-30 0-41z m-4-143h337v-26h-337v26z" />
<glyph glyph-name="error" horiz-adv-x="1000" unicode="&#xef16;" d="M800 170l-120-120-180 180-180-180-120 120 179 180-179 180 120 120 180-180 180 180 120-120-180-180 180-180z" />
<glyph glyph-name="excavator" horiz-adv-x="1000" unicode="&#xef17;" d="M937 449c-12 0-22 1-33 0-8-1-12 2-15 9-44 87-88 173-132 259-11 23-23 46-36 70-16-11-32-23-48-34-7-4-8-7-5-14 6-16 11-32 17-48-3-2-6-4-8-5-93-50-186-99-278-150-19-11-34-14-52 0-3 3-9 4-12 2-17-8-33-18-50-27 5-15 10-29 14-43 1-4 1-10-1-14-24-58-49-116-73-175-3-7-7-9-15-9-30 0-59-1-89 0-29 0-46-23-45-45 2-34 0-68 1-103 0-23 12-35 35-36 20 0 40 0 60 0h56c-17-17-20-37-16-57 5-21 16-30 37-30 45 0 91 0 137 0 19 0 35 6 43 24 9 19 5 41-9 57-1 1-3 3-5 6h14c46 0 91 0 136 1 23 0 32 9 32 32 0 47 0 94 0 140 0 6-2 12-5 17-19 30-38 60-57 89-4 6-8 8-15 8-40 0-81 0-121 0-4 0-8 0-12 0-1-5-1-8-1-10 0-31 0-61 0-91 0-3-4-9-6-9-31-1-62-1-95-1 2 4 3 7 4 10 33 62 65 125 98 187 3 5 10 9 16 10 80 24 159 47 239 70 28 8 56 16 84 24 28-41 54-81 84-119 25-31 37-64 32-104-1-15-2-27-14-38-6-6-10-14-16-20-7-9-5-17 0-27 4-7 7-16 9-24 2-8 3-15 4-24 2 1 4 2 5 4 27 27 52 56 80 81 21 19 30 40 27 68-2 29 0 59 0 89z m-518-110c3 0 6 1 8 1 26 0 51 0 76 0 5-1 11-4 13-8 17-25 33-50 48-77 5-9 3-20 5-32h-150c0 39 0 77 0 116z m201-316c-60 0-119 0-179 0-3 0-7-2-9-5-9-18-25-24-44-24-48 0-97 0-146 0-15 0-27 7-33 21-3 6-6 8-12 8-28 0-56 0-84 0-32-1-53-21-50-51 0-4 0-9 0-13 0-28 19-46 47-46h253v0h256c25 0 44 15 47 40 1 10 1 21-1 31-4 25-20 39-45 39z" />
<glyph glyph-name="exchange" horiz-adv-x="1000" unicode="&#xef18;" d="M549 317h-289l107 107c8 8 8 20 0 27l-45 45c-7 8-19 8-27 0l-227-227c-7-7-7-19 0-27l227-227c8-7 20-7 27 0l45 45c8 8 8 20 0 27l-115 116h297c11 0 19 8 19 19v76c0 10-8 19-19 19z m383 140l-227 227c-8 8-20 8-27 0l-45-45c-8-7-8-19 0-27l107-107h-289c-11 0-19-9-19-19v-76c0-11 8-19 19-19h297l-115-116c-8-7-8-19 0-27l45-45c7-7 19-7 27 0l227 227c7 8 7 20 0 27z" />
<glyph glyph-name="exclamation-circle" horiz-adv-x="1000" unicode="&#xef19;" d="M500 788c-242 0-437-196-437-438s195-438 437-438 438 196 438 438-196 438-438 438z m0-162c19 0 39-1 59-4l-8-370c-18-3-34-4-51-4-17 0-34 1-51 4l-8 370c20 3 39 4 59 4z m56-548c-20-2-38-4-56-4-18 0-37 2-56 4-3 19-4 37-4 56 0 18 1 37 4 56 19 2 37 4 55 4 19 0 37-2 56-4 4-19 5-38 5-56 0-18-1-37-4-56z" />
<glyph glyph-name="exclamation-square" horiz-adv-x="1000" unicode="&#xef1a;" d="M873 787h-745c-36 0-65-28-65-64v-746c0-36 29-64 65-64h745c36 0 65 28 65 64v746c0 36-29 64-65 64z m-373-161c19 0 39-1 59-4l-8-370c-17-3-34-4-51-4-17 0-34 1-51 4l-8 370c20 3 39 4 59 4z m56-548c-19-3-38-4-55-4-19 0-38 1-56 4-3 19-5 38-5 56s2 36 5 55c18 3 36 5 55 5 18 0 37-2 56-5 3-19 4-37 4-55 0-18-1-37-4-56z" />
<glyph glyph-name="exclamation-tringle" horiz-adv-x="1000" unicode="&#xef1b;" d="M937 4c-2 12-6 23-11 33-11 20-22 40-33 59-113 204-226 407-339 610-6 12-14 23-23 33-18 17-41 18-60 1-8-8-16-18-21-28-125-225-250-450-375-675-4-6-7-13-9-19-11-33 4-59 37-67 8-3 18-4 27-4h739c7 0 14 1 21 2 31 3 51 26 47 55z m-438 552c18 0 35-1 53-4l-7-327c-15-3-30-4-45-4-15 0-30 1-45 4l-7 327c18 2 34 4 51 4z m50-485c-17-2-33-4-49-4-16 0-33 2-49 4-3 17-4 33-4 49 0 16 1 33 4 50 16 2 32 4 48 4 17 0 33-2 50-4 3-17 4-33 4-49 0-17-1-33-4-50z" />
<glyph glyph-name="exclamation" horiz-adv-x="1000" unicode="&#xef1c;" d="M500 239c18 0 36 2 56 5l8 401c-21 4-43 5-64 5-21 0-42-1-63-5l8-401c18-4 37-5 55-5z m61-63c-21 3-41 5-61 5-20 0-40-2-60-5-3-21-5-41-5-61 0-20 2-40 5-60 20-3 41-5 60-5 20 0 40 2 61 5 3 20 4 41 4 61 0 19-1 39-4 60z" />
<glyph glyph-name="exit" horiz-adv-x="1000" unicode="&#xef1d;" d="M903 333c9 9 9 25 0 35l-286 294c-10 9-25 9-34 0l-57-59c-9-9-9-25 0-35l135-139h-364c-13 0-24-11-24-25v-98c0-14 11-25 24-25h374l-145-149c-9-10-9-26 0-35l57-59c9-9 24-9 34 0l286 295z m-485 333h-206v-632h206v-122h-267c-34 0-61 28-61 61v754c0 33 27 61 61 61h267v-122z" />
<glyph glyph-name="expand" horiz-adv-x="1000" unicode="&#xef1e;" d="M934 0c-2 20-5 40-7 60-3 21-5 42-8 62l-8 69c-1 4-1 7-2 12 0 2-2 3-4 3h-78c-2 0-4-1-4-3 1-28 2-57 3-87 0-2-1-3-2-2-1 0-2 1-2 1l-133 102-5 4c-2 1-3 2-4 2s-1 0-3-1c-13-7-26-14-39-21-7-4-15-8-22-12-2-1-2-3-1-4 23-19 45-38 67-57 22-19 44-38 66-57 2-1 3-2 2-2 0-1-2-1-4-1-47 4-94 7-141 10-2 0-4-1-5-3 0-1 0-2-1-3l-18-67 0-1c-1 0-1 0-1-1 0 0 2 0 4 0l25-2 61-5 55-4c18-2 35-3 53-5l44-3c20-2 40-3 59-5 11-1 22-1 33-2 3 0 6 0 9-1h11c2 0 4 1 4 2 0 1-1 3-1 5-1 6-2 11-3 17z m-515 5l-18 67c-1 1-1 2-1 3-1 2-3 4-5 3-47-3-94-6-141-10-2 0-4 0-4 1 0 0 1 1 2 3l66 56c23 19 45 38 67 57 1 1 1 3-1 4-7 4-15 8-22 12-13 7-26 14-39 21-1 1-3 1-3 1 0 0-2-1-3-2l-6-4-133-101c0-1-1-1-2-2-1-1-2 0-2 2 1 30 2 59 3 87 0 2-2 4-4 4h-78c-2 0-4-2-4-4 0-4-1-8-1-12l-9-69c-2-20-5-41-7-62-3-20-6-40-8-60-1-6-2-11-3-16 0-2 0-5 0-6 0 0 1-1 3-1h12c3 0 5 0 8 1 11 0 22 1 33 2 20 1 39 3 59 4 14 1 29 2 44 4l53 4c19 2 37 3 55 4l61 5c9 1 17 1 26 2 1 0 3 1 3 1 0 0 0 0 0 1-1 0-1 0-1 0z m162 690l18-67c1-1 1-2 1-3 1-2 3-4 5-3 47 3 94 6 141 10 2 0 4 0 4-1s-1-1-2-3l-66-56c-22-19-44-38-67-57-1-1-1-3 1-4 7-4 15-8 22-12 13-7 26-14 39-21 2-1 3-1 3-1s2 1 4 2l5 4 133 101c0 1 1 1 2 2 1 1 2 0 2-2-1-30-2-59-3-87 0-2 2-4 4-4h78c2 0 4 2 4 4 1 4 1 8 2 12l8 69c3 20 5 41 8 62 2 20 5 40 7 60 1 5 2 11 3 16 0 2 1 5 1 5 0 1-2 2-4 2h-12c-2 0-5-1-8-1-11 0-22-1-33-2-19-1-39-3-59-4-14-1-29-2-44-4l-53-4c-18-2-37-3-55-4l-61-5c-8-1-17-1-25-2-2 0-4-1-4-1 0 0 0 0 0-1 1 0 1 0 1 0z m-190 4l-61 5-55 4c-18 1-35 3-53 5l-44 3c-20 2-40 3-59 5-11 0-22 1-33 1-3 1-6 1-8 1h-12c-2 0-3 0-3-1 0-1 0-4 0-5 1-6 2-11 3-17 2-20 5-40 8-60 2-21 4-42 7-62l9-69c0-4 1-7 1-12 0-2 2-3 4-3h78c2 0 4 1 4 3-1 28-2 57-3 87 0 2 1 3 2 2 1 0 2-1 2-1l133-102 6-4c1-1 3-2 3-2 0 0 2 0 3 1l39 21c7 4 15 8 22 12 2 1 2 3 1 4-23 19-45 38-67 57-22 19-44 38-66 57-1 1-2 2-2 2 0 1 2 1 4 1 47-4 94-7 141-10 2 0 4 1 5 3 0 1 0 2 1 3l18 67 1 1c0 0 0 0 0 1 0 0-2 0-4 0-8 1-17 2-25 2z" />
<glyph glyph-name="external-link" horiz-adv-x="1000" unicode="&#xef1f;" d="M808 351h-67c-11 0-21-9-21-21v-280c0-12-9-21-21-21h-503c-12 0-21 9-21 21v505c0 12 9 21 21 21h280c12 0 21 9 21 21v65c0 12-9 21-21 21h-392c-12 0-21-9-21-21v-726c0-11 9-21 21-21h724c12 0 21 10 21 21v394c0 12-9 21-21 21z m16 433h-249c-8 0-15-7-15-15v-83c0-9 7-15 15-15h127c8 0 10-5 5-11l-212-211c-6-6-6-16 0-21l86-86c6-6 15-6 21 0l212 212c6 6 10 4 10-5v-128c0-8 7-15 15-15h84c8 0 15 7 15 15v363c0 0-114 0-114 0z" />
<glyph glyph-name="external" horiz-adv-x="1000" unicode="&#xef20;" d="M873 787h-746c-36 0-64-29-64-65v-744c0-36 28-65 64-65h746c36 0 65 29 65 65v744c0 36-29 65-65 65z m-66-495h-83c-8 0-15 7-15 15v127c0 8-4 10-10 4l-210-210c-6-6-15-6-21 0l-85 85c-6 6-6 15 0 21l209 210c6 5 4 10-4 10h-126c-8 0-15 7-15 15v82c0 9 7 15 15 15h343c9 0 17-7 17-16v-343c0-8-7-15-15-15z" />
</font>
</defs>
</svg>
